&title=Lucia
&artist=SHIKI
&first=1.537
&lv_5=1
&des_5=
&inote_5=
(125){4},
E
&lv_6=13.7
&des_6=AtNN
&inote_6=
(154){8}5,5,,5,,3,{4}3,
3,{8}4,5,,2v5[0.1948##0.1948],2,1,
8h[4:1],,,8,8h[4:1],,,6,
8h[4:1],,,8,{4}8h[8:1],{8}8,1,
2h[4:1],,,2,2h[4:1],,,2/3,
2h[4:1],,,2,2-6[0.1948##0.1948],4-8[0.1948##0.1948],,,1h[4:1],
,,1,{4}1h[8:1],{8}1,8,
{2}4h[8:3],{16}8/4,7,6,5,4,3,2,1,
{4}8b-4[8:1],{8}8,2,{4}2-6[8:1],{8}2,7,
{4}6h[4:1],{8}7h[8:1],1h[4:1],,8h[8:1],7h[8:1],6h,
{4}3,4,6,{8}4h[8:1],6,
{4}6,5,{16}6,4,5,3,2,4,2,3,
{8}3bx/4bx,{16},,,,6,5,8h[16:1],,,7h[16:1],{4}6h[8:1],
7-3[8:1],{8}7,2,{4}2-5[8:1],{16}E3,B3,B4,E5,
{8}6h[4:1],{16},,,,3,4,{8}3,{16}6,5,{8}7,{16}3,4,
{8}2h[4:1],{16},,,,2,4,{8}2h[8:1],3h[4:1],{16},,,,4b,
6,4,6,,,{8}6/5,{4}8/7,{16}8,1,{8}2,
5h[8:1],3h[4:1],,8h[4:1],,2h[8:1],{4}3h[8:1],
2-5[8:1],2,6-1[8:1],6,
3-6[8:1],3,{16}4,3,4,3,1,2,1,2,
{8}1b,{16},,,,5,6,{4}7-2[8:1],7,
3-6[8:1],3,8-3[8:1],{16}8,B1,B2,E3,
4xh[4:1],,,,,6,{8}4,{16}6,5,,3,{4}4h[8:1],
{16}2h[4:1],,,,,4,2,4h[16:5],2,1,8,7,6,5,4,3,
{4}2bx,{16}6,5,{8}6,5,4,,3,
{4}2,{16}6,4,5,3,6,4,5,3,5,3,4,2,
{8}5,{16},,,,1,1,{8}1,{16},,,,6,6,
{8}6,{16},,,,6,4,6,4,5,4,6,4,6,5,
{8}4,{16},,,,3,2,{8}1,5,,4,
{4}7,{16}3,5,4,6,3,5,4,6,4,6,5,7,
{2}4,{8}4h[8:1],3h[4:1],,,2b/4b<2[2:1],
{16},,,,2,2,{2}2,
{4}2-8[4:1],8-6[4:1],{8},,,5,
4,{16},,,,5,4,{2}3,
{4}4<7[4:1],7-1-3[4:1],{2}1,
{8}6/4,{16},,,,5,5,{2}5,
{4}2-8-6[4:1],6-4-2[4:1],{8}8,,,4,
5,{16},,,,4,5,{8}6,6-8[0.1948##0.1948],6,6-3[0.1948##0.1948],
6,{16},,,,4,3,{8}2,3,4,2,
{1}5>7[2:1],
{8}6b/4b,{16}6,4,,,{8}3,{16}2,4,,,{8}5,{16}6,5,
,,{8}4,{16},,3,2,{2}1-5[0.1948##0.1948],
{8}3,{16}3,4,,,{8}5,2/3,3/4,4/5,6/5,
{16}7h[8:3],,,,,,,5,{2}7-3[0.1948##0.1948],
{8}8b,{16}3,4,,,{8}5,7/6,6/5,5/4,3/4,
{16}2h[4:1],,,,,4,{8}2,4,4,3,2,
1-7-5-3[4:3],{16},,,,3,2,{8}1,2,3,2,
1,{16},,,,2/6,3/7,{8}4/8,4-8[0.1948##0.1948],{4}6-2[0.1948##0.1948],
,,2-8-6[2:1],8-5[0.7792##0.3896],
{1}6-3[2:1],
{4}4-6-8[2:1],8-2[0.7792##0.3896],{2}2-4[0.7792##0.3896],
{1}4-2-8[2:1],
{2}4-6[0.1948##0.3896],7-3[0.1948##0.3896],
{1}2-8-6-4[4:3],
{4}8-2[0.7792##0.3896],2-6[0.7792##0.3896],6x-4[0.7792##0.3896],4-6[0.7792##0.3896],
{8}8-2[4:1],,,,,2x/6x,5/4,4/3,
{2}3b/2b,{8}3/4,5/4,6/5,6/7,
7/8,{16},,,,8,6,{4}1,1h[4:1],
{2}8,{8}8,7,6,7,
8,{16},,,,5,5,{2}5,
8h[2:1],{8}1,2,3,2,
{4}2b/6b,{16}8bx,1bx,{8}7bx/2bx,6b/4b,5b/3b,,5b/3b,
6b/2b,{16},,,,6,4,{8}7,6,5,6,
4>7[2:1],,,6-2[0.1948##0.1948],,,,,{4}5b/4b,
{16}6,4,{8}5,{16}3,5,{8}4,{16}7,5,{8}6,
{16}2,4,{8}3,{16},,4,3,{4}2,{16}6,4,{8}6,
7-3[8:1],6,{4}7,{8}2-5[8:1],3,{4}2,
{8}6/4,{16},,,,5,5,{4}5,{16}2,4,{8}2,
{16}6,5,{8}7,{16}4,5,{8}3,{16}7,5,7,5,6,4,6,4,
{4}7b,{16}5,3,5,3,4,2,4,2,3,1,3,1,
{8}2b,{16},,,,7/1,6,{8}5,4/3,5/4,1/2,
5/4,{16}6,4,5,2,4,1,{8}5,7/3,{24}8/4,3/7,2/6,5/1<5p7p6[0.1948##6.2338],,,{1}1b/5b>1p3p2[0##6.2338],
E
