&title=Magical Flavor
&artist=DECO*27
&first=0
&des=Cuber-26
&lv_6=14
&inote_6=(98)
{4}
,,,,,,,,
{24}
7/2pp2[16:3],,,7,,,,,6,,,,
{24}
1/7<1[16:3],,,4,5,6,4h[8:1]/7,,,,,,
{24}
48,,,7,,7h[4:1],,,5,,,1>4[16:1],,,,7,,1,6,,,46,,,
{24}
3-8[16:1],,,25,,47,,,7,7,,1/6h[24:1],,,6,5,,5,4,,4,3,,,
{24}
2/6h[8:1],,,4,,3,37,,,1>5[8:1]*<5[8:1]/5,,,1/5w1[8:1],,,,,,{4}
,
{24}
3b/7b>2[8:1],,,56,,,47,,4,3,,,8>5[8:1]/2,,2,7,,7,6h[12:1]/8,,,7,,,
{24}
8<5[8:1]/5,,,36,,,28,,2,1,,,8>4[8:1]/1,,7,7,,8,6h[12:1]/8,,,6,,,
{24}
3>8[8:1]/5,,,46,,,35,,6,7,,,5<8[8:1]/6,,6,3,,3,4h[12:1]/5,,,4,,,
{24}
2/8>5[8:1],,,15,,,68,,6,7,,,7b/3b>5[16:3],,6b/4b,,,6b/4b,,,,,,,
{24}
8b,,,,,8h[24:7],,,,,,4,,,4,8,,8,3/7>4[24:5],,,45,,,
{24}
7/1,,,,,8,,,,1/5h[8:1],,,,,5,3-5[16:1],,3,1,,1,3,,,
{48}
36,,,,4,,{24}
,,4,5/7h[8:1],,,4h[24:5],,,8h[8:1],,,3,,3,1h[8:1],,4,5,,,
{8}
4>5[8:3]/1h[8:1],,8h[8:1],,7h[4:1],,1>4[16:1],{64}
2b/8b,7,6,5,,,,,
{24}
1b/5b-8[16:1],,6,,,4,35,,,2,,2,3-8[16:1]/5,,4,7-5[16:1],,6,3-6[16:1],,,7,,,
{24}
3,,,7,,7,36,,,57,,5,7<3[8:1],,7,1,,,73,,,1,,,
{24}
2/4h[8:1],,1qq6[4:1],,,3,13,,,4h[8:1],,,,,,5,,5,4/6v1[16:1],,,4,,4,
{24}
3v8[16:1]/6,,,2,,2,36,,,5,,5,4h[8:1]/8pp5[4:1],7,6,5,4,3,8/2h[8:1],,,,,,
{24}
4b,,,56,,,35,,3,5,,5,1>4[16:1],,,78,,7,1,,6,{48}
6,5,7,,,,
{24}
3,,,4,,4,57,,6,3,,3,2v5[16:1]/8,,,17,,28,8h[24:1],,7,4,3,2,
{24}
1-4[16:1]/6,,7,8,,8,17,,7,5,,5,4,,4,3/5-8[16:1],,,{8}
57,{48}
25,3,4,,,,
{24}
3v8[16:1],,3,5,,1h[12:1],3,,,2,,2,8,,8,17,,,4>1[16:1]/6,,,57,5,6,
{24}
4b/7h[8:1],,,,,,71,,7,1,,7,2v5[16:1],,2,1,,82,,,6,6,,,
{24}
3h[8:1]/5h[8:1],,,,,,3h[8:1]/6h[4:0],,,7,,7,8v3[16:1],,8,7,,,8/6h[8:1],,,,,2,
{24}
4h[8:1]/3-6[16:1],,,2,,5,3/6,,,8>5[4:1],,7h[24:1],{8}
8,7,6,6,
{8}
3/7qq1[8:5],37,4h[8:1],,3h[8:1],,3h[8:1],,
{24}
4,,4,6,,,3/5<8[16:1],,35,,,,{4}
,1b/7b,
{24}
1-5[16:1]/7,,6,2,,3>8[16:1],1,,4,4,,3/5h[24:1],,,5,8v3[16:1],,8,6,,7,68,,,
{24}
8-4[16:1]/2,,3,7,,6<1[16:1],8,,5,5,,6/4h[24:1],,,,1v6[16:1]/3,,,28,,,17,,,
{24}
5/7-2[16:1],,,46,,,5-8[16:1]/7,,4,,,4,3>5[4:1]/5,,,4,,,3b/6b,,,5b,,,
{8}
8h[8:1],{24}
4,,4,5h[8:1]/7,,,6,,6,4v7[16:1],,5,3,,3,2/4b,,,3,,,
{24}
1-5[16:1]/7,,6,2,,3>8[16:1],1,,4,4,,3/5h[24:1],,,5,8,,8,6,,8,6h[8:4],,,
{8}
,7>4[6:1],5,7,,{24}
5-1[16:1]/6v1[16:1],,,47,,56,56,,,
{24}
2/8v5[16:1],,8,1b,,7h[12:1],8b,,,7,,6,7-3[16:1]/5,,,46,,,37,,,2,,,
{4}
5h[16:7]/1h[8:1],
{8}
1w5[16:1],{64}
1,8,7,6,,4,3,2,{8}
1b,3b/7b,2b/6bv1[16:1],1b/5b,
{24}
2b-5[16:1]/6b,,,3,,,2/7-4[16:1],,8,,,1h[12:1],,,2,2-5[16:1],,,18,,,25,,7,
{24}
7-4[16:1],,,18,,78,,,1>4[16:1],,,7h[12:1]/1h[12:1],,,,5v2[16:1]*v2[16:1],,,4/6<1[16:1],,,5,,,
{24}
3-8[16:1]/6,,,4,,,3/6-1[16:1],,5,,,4h[12:1],,,3,3-8[16:1],,,45,,,38,,7,
{24}
6-1[16:1],,,35,,4,46,,,4,,8,2pp1[8:1],,2,8,,8,2,,,8,,,
{24}
1p5[16:1],,8,2,,2,1q5[16:1],,2,8,,8,1p5[16:1],,8,2,,2,1>4[16:1],,2,8,,8,
{24}
1<6[16:1],,7,2,,2,1>4[16:1],,3,8,,8,1<6[16:1],,7,2,,2,1,,,45,,,
{24}
7,7,4,6,3,5,2,2,5,3,6,4,8,8,2,2,4,4,7,7,5,5,3,3,
{24}
7b,1,5,2b,8,4,7b,1,5,2b,8h[24:4],4h[24:3],
{24}
,,,,,46,4qq5[4:3]/6pp5[4:3],,,,,,
{4}
4b/6b,,,,
{24}
4-1[16:1]/7,,4,6,,6,4,,5,5,,4,3>6[8:1]/5,,5,4,,5,36,,,,,,
{24}
1>4[16:1]/7,,1,7,,7,1,,8,8,,1,2>8[8:1]/8,,8,1,,8,2,,,,,,
{24}
86,,6,4,,4,2,,2,4,,4,6<3[8:1],,5,3,,4,5h[8:1]/6b,,,,,,
{24}
1<4[8:1]/7,,7,3,,3,1,,,3,,3,4-1[16:1],,5,3,,,46,,,5,,,
{24}
8>5[8:1]/2,,2,7,,7,8,,,6,,6,5-8[16:1],,4,6,,,53,,,4,,,
{24}
1<4[8:1]/7,,7,3,,3,1,,,3,,3,5,,5,7,,,1h[24:1]/6h[24:1],,,4h[8:1]/5h[8:1],,,
{24}
,,,1b/8b,,,3,,3,1,,1,8,,8,6,,6,3,,8,1,,2b/7b,
{4}
,,,E
