&title=Burning Heat!(Full Option Mix)
&artist=Mr.T with Motoaki.F
&first=0.101
&des=12 BEAT
&lv_5=13
&des_5=12 BEAT
&inote_5=
(166){4},4b,,,,,,,,5b,
,,,6b,
,,,4b/3b,
,,,,,,,6b/5b,
{12},,,,,,,,,8,
2,8,{8}2,7<7[8:3],3,7,
,,{4}4b,1/2,8-5[8:1],
8/7,4-1[8:1],4/3,8-5[8:1],
8/7,4b-8[8:1],4/1,7-5[8:1],
7/8,3b-1[8:1],3/4,7-5[8:1],
7/8,4b-2[8:1],6/4,5-7[8:1],
3/5,4-2[8:1],6/4,5-7[8:1],
3/5,{12}3b,5,3,{4}5,{12}6,4,6,
{4}4,{12}3b,5,3,5,2,6,2,{6}6,
{16}8/4,,,2/6,,,{8}7/3,{4}1,{12}7,6,5,
3,4,{6}3,{12},,1,2,3,5,4,7,
{4}2,{12}6,3,8,{4}1,{12}8,1,2,
{2}3b-7[8:1],{12}6,8,6,1,2,5,
{4}6,{12}2,3,6,7h,1h,7h,1-5[8:1],,,,,7,
6/4,,3/5,,4/7,,2/5,,4/8,
,1/5,,{4}3b/4b-8[8:1],{12},,,3,7,1,
{3}5-8[8:1],{12}1,2,3,6,4,7,6,5,
4h,3h,5h,2h,,,8,1,7,6/2-4[8:1],,,{4}2/1,
3/7-5[8:1],7/8,6/4-8[8:1],
4/3,7/1-5[8:1],1/2,4/3-8[8:1],
3/7,1/6-4[8:1],6/8,{12}1b/3b,,6b/5b,
,7b/8b,,2b/4b,,7b/6b,,1b/3b,,{4}4/8<5[8:1],
{12}8,1,2,6/3-8[8:1],,,{4}4/3,2/7-5[8:1],
{12}7/8,1,2,3b/4b,,6b/5b,,2b/4b,,{4}5b/7b>2[8:1],
{12}7/2,3,4,5bw1[6:1],,,,,,,7/3,2/8,
{4}3/7,{12}6/2,7/1,,{4}6/2,{12}6,5,4,
3,7,2,6b>3[6:1],,,{6}6/1,1,{12},,2,
3,4,8,7,6-2[8:1],{6}4,6b,{24},,,,{8}3,
{16}6,5,{4}6,{12}3,4,3,4>1[6:1],,,4/7,
7,7,6,2,5,3,4,3,6,5,4,
3,7,2,6/3<6[6:1],,,{6}3/7,7,{12},,3,
1,{6}2,{12}6,8-3[8:1],{6}7,1/8,{12},,,3,
2,1>4[6:1],,,{6}1/6,6,,4,
{12}5,2,3,4,5,6,7,8/2,,,2,
3,4,5,6,7,2,3,1,4/8-4[8:1],,,8,
1,2,3-1[8:1],,,{4}3/8,7-5[8:1],
{12}7/8,1,2,3-8[8:1],,5,{6}3/4,{12}6,5,1,5-1<5[3:1],
{6}3,5,{12},,{4}2b,{12}4,5,3,
{6}2-5[8:1],{12}7,2,,1-6[8:1],,3,1,2,,3,
5,4,6,2,1,2>2[12:5],,,,,,,,,,5,
4,7,2,6,3,6,5,4,
3,1,2,8,1,7,8,6b>3[3:11],{1},,,,{12},{4}7h,
{12},2h,1h,3h,,4h,,5h,,6h,,7h,
,6h,,{4}8h,{12},,,2h,1h,3h,
{16}4h,,,,,6,5,4,{12}2h,5h,1h,8h,2h,8h,
{2}4>1[4:1],{12}8h,7h,6h,{24}3,4,3,4,{12}3,
5,2,5,6/4>1[6:1],,,4/8,7,6,5>3[8:1],,,{4}5/2,
8/1-5[8:1],{12}1/4,3,2,1-5[8:1],,7,
1,8-4[8:1],,3,8,,2,5,3,8,,,7,
6,5,2b/1b,,3b/4b,,6b/5b,,7b/8b,,2,
1,2,1,2-5[8:1],,,2,1,8,7<5[8:1],,,{4}7/8>2[8:1],
8/4<7[8:1],{12}4,2,3,4/8,,1/5,
,7/3,,{4}2/6>4[8:1],{12}6/1,2,3,7b-1[8:1]/4b-2[8:1],,,{3}7/4,
{12}2,1,{6}2,{12},,7,7,
{4}8-5[8:1]*-3[8:1],8b,4b,{12}4,6,4,
{4}6,{12}2,3,4,5,7,4,8,3,1,
2,3,4,5,7,4,8,3,1,2,8,4,
6,5,6,3,4,3,{4}4b<6[8:1],{12}8/4,1,2,
{4}3<6[8:1]/1<6[8:1],1b/3b,{12}4,5,4,5<8[6:1],,,5/1,
2,3,4,8,3,7,2,6,1,5,2,
5,3,5,4,5,5,6,5,7,5,8,5,
1,2,3,{24}4,6,4,6,{12}4,7,1,3,5,7,1,
3,5,7,1h,,2h,,3h,,4b/6b,,2b/8b-5-3v2-8[12:19],
E
