&title=STRONG 280
&artist=かたぎり
&first=0.45
&des=How is this not zAz?
&lv_5=13+
&inote_5=(280)
{4},{2}6h[1:3]/5,E3/B3,E5/B5,E3/B3,E5/B5,E3/B3,{4}E5/B5,E7,C,E3,{2}3h[1:3]/4,E7/B6,E5/B4,E7/B6,E5/B4,E7/B6,{4}E5/B4,E6,E7,E8,{2}2h[1:3]/1,E7/B7,E1/B1,E7/B7,E1/B1,E7/B7,{4}E1/B1,E3,C,E7,{2}5<8[2:1],E5,4>1[2:1],E5,5<8[2:1],Chf[4:3],
{4}1-5b[8:1],1x,,
{4}2bx-5[8:1],8,1-5[8:1],4,{8}2-5[8:1],,8x,7-1[8:1],,3x,2h[4:1],,{4}7-4[8:1],1,8-4[8:1],6,7-4^5-1[2:1],1,2,3x,4-8[8:1],7,6-1[8:1],2,{8}4-8[8:1],,6x,7-4[8:1],,1x,2h[4:1],,{4}5-1[8:1],2,3-8[8:1],7,1/6h[2:1],3,5h[2:1],6,7bx-4[8:1],1,8-4[8:1],5,{8}7-4[8:1],,1x,2-8[8:1],,6x,7h[4:1],,{4}2-5[8:1],8,1-5[8:1],3,2-5^4-8[2:1],8,7,6x,5-1[8:1],2,3-8[8:1],7,{8}5-1[8:1],,3x,2-5[8:1],,8x,7h[4:1],,{4}4-8[8:1],7,6-1[8:1],2,3h[2:1]/8,6,4h[2:1],2,
{4}1bV35[2:1],4,6,8,7V53[2:1],4,2,8,1V35[2:1],4,6,8,7h[4:3],{8}B6,B5,,B2,{4}E3,8V64[2:1],5,3,1,2V46[2:1],5,7,1,8V64[2:1],5,3,1,2h[4:3],,Cf,,
{4}1/8,7,6/8,1,{8}2/5,,3,4,,4,5,,{4}4/6,7,3/5,1,2/8,{8}3,4,2,6,5-1b[8:1],,{4}8,7,2/6,3,1/4,{8}2,3,,3,4,,{4}3/5,2,4/6,8,1/7x<4[4:1],1/7,3>8[4:1],3,6bx,5/7,4/5,2/4,3,4/5,3/6,{8}5,4,{4}6-1[8:1],2-5[8:1],7-4[8:1],3-8[8:1],6,5/7,1/8,2/4,1/8-4[8:1],1-5[8:1],7-4[8:1],2-5[8:1],6^1p4[2:1],4,3,2z6>1b[2:3],{1}Cf,{4},,8b,8b,
{4}1x/7x,4/5,2/8,4/5,1/6,4/5,3/8,4/5,7-4[8:1],8-4[8:1],1-4[8:1],8-4[8:1],7-4^5-1[2:1],8b,2b,4b,3/5,1/8,4/6,1/8,2/5,1/8,4/7,1/8,2/4-7[8:1],{8}1,1x-5[8:1],,6,{4}6x,2bxv5V38[2:1]/8bx,8,7,6,5/7,1/8,2/4,1/8,5/6,1/8,3/4,1/8,7-3[8:1],5x,2-6[8:1],4x,1V74[4:1]/8V25[4:1],,,2x/7x,1/6,4/5,3/8,4/5,7/8,4/5,1/2,4/5,7/8-3[8:1]
,{8}5,5x-1[8:1],,4,4x,,{4}2bx/8bx-4V61[2:1],1,2,3,
{1}Ch[1:1],8-4p7[4:3],{2}Ch[1:1],E6/B5/B6,B1/B8,2>6p1[4:3],Ch[1:1],,8-4^5-2[4:3],,Ch[1:1],E2/B2/B1,E5/B4,{8}7bx,7bx,7bx,7bx,{1}7bx/Ch[1:1],6-2p4[4:3],{2}Ch[1:1],A6/B6/E7,A8/B8,3>8q5[4:3],Ch[1:1],,4-8p3[4:3],,Ch[1:1],A2/B2/E2,A4/B4,7q8b[4:3],
7h[1:2],,{12}A1,D2,A2,D3,,,B7,C,B4,{4}A4,3h[1:2],,2h[4:1],,{12}A1,D1,A8,D8,,,B2,C,B5,{4}A5,6h[1:2],,7h[4:1],,{12}A8,D1,A1,D2,,,B7,C,B3,{4}E4,4h[1:2],,3h[4:1],,{12}A2,D2,A1,D1,,,B3,C,B7,E7,,,{4}5hx[4:3],4,3,2h[1:1],{12}7,6,5,4x,,,7,6,5,{4}4x,3hx[4:3]/4x,4,5,6h[1:1],{12}2,3,4,5x,,,2,3,4,{4}5x,7hx[4:3]/5x,4,3,2h[1:1],{12}8,7,6,5x,,,8,7,6,5x,,,{4}1hx[4:3]/4x,5,6,7h[1:1],{12}1,2,3,4x,,,1,2,3,4x,5x,6x,
{2}7x<1[2:3],8,7,6,5p2b[4:3],C,E5,1/8,2>8[2:3],1,2,3,4q7b[4:3],C,E5,8/1,{4}2/7-4[2:1],2,1,1,8-3[2:1],8,5,5,6-1[2:1],6,4,4,3>6<3[4:15],3,6,,5,5,4,4,3,4,5,6,4,5,6,7,5b,6b,7b,8b,
{4}1/2,5/6,7/8,3/4,1hx[8:3]/2hx[8:3],,{12}E1/E3,B8/B3,B7/B4,{4}E7/E5,8/7,4/3,2/1,6/5,8hx[8:3]/7hx[8:3],,{12}E1/E7,B1/B6,B2/B5,{4}E3/E5,5/6,1/2,3/4,7/8,5hx[8:3]/6hx[8:3],,{12}E5/E7,B4/B7,B3/B8,{4}E3/E1,4/3,8/7,6/5,2/1,4hx[8:3]/3hx[8:3],,{12}E5/E3,B5/B2,B6/B1,{4}E7/E1,
{4}1x/2x,1/2,2x/3x,2/3,3x/4x,3/4,4x/5x,4/5,5x/6x,5/6,6x/7x,6/7,7x/8x,7/8,8x/1x,8/1,{8}2bx,1,2,1,4bx,5,4,5,8bx,7,8,7,{2}1hbx[2:1],{16}8bx,7,6,5,4,3,2,1,2bx,3,4,5,6,7,8,1,{2}2bx/7bx,E1/E2/E3/E4/E5/E6/E7/E8/D1/D2/D3/D4/D5/D6/D7/D8/Cf/B1/B2/B3/B4/B5/B6/B7/B8,
{4}1b/7b,3/4,2/8,5/6,1/7,1/3,1-6[8:1]/7,1/3,2bx-5[8:1],1bx-5[8:1],8bx-5[8:1],1bx-5[8:1],2bx-5^4-8[2:1],1b,7b,5b,1/6,3/4,3/8,5/6,2/8,7/8,2/8-3[8:1],7/8,6h[4:1],{8}5,4/7-4b[8:1],,3,3h[4:1],,{16}1bx,8x,7x,6x,1bx,2x,3x,4x,1bx,8x,7x,6x,1bx,2x,3x,4x,{4}5bx/7bx,3/8,2/4,1/6,3/5,5/7,3/5-2[8:1],5/7,8bx-4b[8:1],3bx/8x,1bx-5[8:1],1x/6bx,7bxV16-2[2:1],5b,3b,1b,3/4,7/8,5/6,1/2,4/6,2/4,4-7[8:1]/6,2/4,{8}1h[4:1],,8,2-5[8:1]/7,,6,{4}6h[4:1],E1f/B1,E3f/B3,E5f/B5,E7f/B7,
{2}1h[4:1]/8h[4:1],{16}1b/8b,2b/7b,3b/6b,4b/5b,{4},7/1,2/8,7/1,2/8,7bx-4[8:1],1bx-5[8:1],6bx-1[8:1],2bx-6[8:1],8bx-4^5-2[2:1],5b,3b,1b,6/8,1/3,6/8,1/3,5/7,2/4,5/7,2/4,{8}6h[4:1],,7,5/8-4[8:1],,2,2h[4:1],,{16}8bx,7x,6x,5x,8bx,1x,2x,3x,8bx,7x,6x,5x,8bx,1x,2x,3x,{4}4bx/6bx,3/5,4/6,3/5,4/7,2/5,4/7,2/5,4bx-8[8:1]/8,4x/6bx,5bx-1[8:1],3x/5bx,2bx-5V37[2:1],8b,6b,4b,1/5,3/7,1/5,3/7,4/8,2/6,4/8,2/6,{8}3h[4:1],,2,4/1-5[8:1],,7,7h[4:1],,{12}E2,E3,E4,E8,E7,E6,{16}B1,B2,B3,B4,B8,B7,B6,B5,{1}Cf,
