&title=Faded
&artist=Alan Walker feat.Iselin Solheim
&first=0
&des=AWtares
&lv_5=13
&des_5=AWtares
&inote_5=
(90){4},,,,3,
3,3,2,
1,1,1,8,
6,6,6,6,
4,4,{2}4-8[8:1],
{4}7h[8:1]/1-4[8:1],7h[8:1],7h[8:1]/5-2[8:1],7h[8:1],
3h[8:1]/5-8[8:1],3h[8:1],3h[8:1]/1-6[8:1],3h[8:1],
5h[8:1]/3-7[8:1],5h[8:1],5h[8:1]/7-4-1[16:3],5h[8:1],
7h[8:1]/E1,7h[8:1]/2-6-4-1[8:3],2/7h[8:1],7h[8:1],
2h[8:1]/7-4[8:1],2h[8:1],2h[8:1]/5-8[8:1],2h[8:1],
8h[8:1]/2-6-2[4:1],7h[8:1]/2pp7<6>5>4>3>2<1[1:1],6h[8:1],5h[8:1],
5xh[8:1],5xh[8:1],{8}5xh[8:1],B2,5h[8:1]/E1,C,
{4}7h[8:1],{8}7h[8:1],4-2[8:1],4-7[8:1],4-1[8:1],4v2<1<6b[1:1],4,
{1}4b,
{8}1,7,3,5-7[8:1],5-2[8:1],5-8[8:1],5v3>7b[1:1],5,
{1}5b,
{8}5,4,6,1-4[8:1],1-6[8:1],1-5[8:1],1,1,
8b,,,3,7/2,{16}1,8,{8}2V86[8:1],7-3[8:1],
{4}2,B1/B8/B7/B6/B5/B4,{8}8-3[8:1],8-5[8:1],8,8,
{2}1b,{8}7/2,2,{12}7-4[8:1],{24}7,2-6[8:1],,2,
{8}7-3[8:1],2qq4[2:1],{4}7,{16},,,,,,,,,,5b/4b,
3b/6b,7b<6>5>4>3>2<1<8<7<6[16:9]*<8<7<6>5[8:5]*<6>5>4>3>2<1<8<7[2:1]*<6>5>4>3>2<1<8<7<6[16:9]/2b>3<4<5<6<7>8>1>2>3[16:9]*>1>2>3<4[8:5]*>3<4<5<6<7>8>1>2[2:1]*>3<4<5<6<7>8>1>2>3[16:9],1b/8b,,8b/1b,{64}7b/2b,E7/E3,B6/B3,B5/B4,{16}E5f,,,,,,,,,,,,,{8}8V64[8:1]*V24[8:1],
8bV62[4:1]*V26[4:1],8,,,,8/1,
B6/B5/E5/B4/B3,{16}5,4b<1[16:5],,,,,,,,,,,{8}8/1,
B6/B5/E5/B4/B3,{16}5,4b<5-8>1[4:1],,,,,,,{8}7-5[8:1],
7V13[8:1],7-5-3>2<1<8<7<6>5b[8:5],7,7,{2}E3f/B2/B3,
{8},8-4[8:1],1>8[4:3],{16}8,1,,,{8}5,B7,6,
B4,5,1-5[8:1],7-4[8:1],1-3[8:1],7-3[8:1],1-5b[8:1],7-5[8:1],
1b-4[8:1],7-1v3-5[32:11]*-1v3-5[32:11],1,{16}7,3,,,,,{8}1q5[8:1]*p5[8:1],6qq1b[4:1]/4pp1b[4:1],
,,,,7b/2b-5[8:1],3,2/7-4[8:1],8,
7/1-4[8:1],{24}8,,1,{12}6-2[8:1],{24}5,5,,6,{8}6/3-7[8:1],4,3/8-4[8:1],1,
8/2-6[8:1],1,{4}2/7-4[8:1],{8}7/3-8[8:1],2,3/5-3-6[4:1],6,
5/2,1,{12}8v2[8:1],{24}8,7,,7,{4}8/6,{8}8-4b[8:1],4-8[8:1]*-8[8:1],
{2}8w4[8:1],{8}3b/6b-1[8:1],5,6/3-8[8:1],2,
3/7-4[8:1],{24}6,,7,{12}2-6[8:1],{24}2,1,,1,{8}2/8-5[8:1],1,8/4-1[8:1],3,
5w1[8:1],5,{4}Cf/5b<4[8:5],{8},4,3,3,
1,8,{12}8-6-4[8:1]*v2[8:1],{24}1,7,,8,,,,,,,{8}1-6[32:3]*-3[32:3],7-5v4-2[4:1]/2-4v5-7[4:1],
{4}1,Cf,{8}1h[8:1],8,1h[8:1],8,
1h[8:1],8,1h[8:1],8,2h[8:1],7,2h[8:1],7,
2h[8:1],7,3h[8:1],6,4h[8:1],5,{64}4,,,,,,,,,5,,,,,,,,4,
,,,,,,,,{32}5,,,,,{16}4,{32},,,6-3[32:57],,,,,,,{16}B2,
E
