&title=Black Swan Lake
&artist=葉月ゆら
&first=0.02
&des=CR
&lv_5=13+
&des_5=CR
&inote_5=
(186){4},7h[8:1]/4V28v3[4:5],7h[8:1],7h[8:1],
7h[8:1],6h[8:1],6h[8:1],6h[8:1],
6h[8:1],3h[8:1]/5<8-4[2:1],3h[8:1],3h[8:1],
3h[8:1],2x-4[8:1],8x-6[8:1],1xw5b[8:1],
A1f,8h[8:1],8h[8:1],7h[8:1]/B3/E4,
7h[8:1],6h[8:1]/B2/E2,6h[8:1],5h[8:1]/B1/A1,
5h[8:1],4h[8:1]/B8/A8,4h[8:1],3h[8:1]/B7/E8,
3h[8:1],{16}2,,,5/7,,,{8}2/4,{4}1-4[8:1]/8-5[8:1],
1b/8b,3b/7b,{16}1x,2x,3x,4x,1x,8x,7x,6x,
8x,1x,2x,3x,4x>1[8:1],,,5,,,{8}6,{16}7<4[8:1],,,1,
,,{8}2,{4}3b,{16}8x,7x,6x,5x,8x,1x,2x,3x,
1x,8x,7x,6x,5x<8[8:1],,,4,,,{8}3,{16}2>5[8:1],,,8,
,,{8}7,{4}6b,{16}3,4,3,4,2,5,2,5,
3,4,2,5,{4}1x,{16}6,5,6,5,7,4,7,4,
6,5,7,4,8x,,,2/4,,,{8}5/7,{16}1/8,,,3/4,
,,{8}5/6,{4}2bV48[2:1]/7bV51b[2:1],,,,2b/7b,
{16},,,,,,5,4,
{4}3bx/6bx,7h[4:3],5x,B4,
{8}3x,3h[8:7],,4,{4}5x,B7,
{8}8x,8V64[8:3],,2,{4}2x,{16}1,,,2,
{8}5x,3,{4}3h[2:1],{8}8x,{16}8,7,{4}6h[4:1],
3x,1/7,2xh[4:1],3h[4:1],
4xh[4:1],5V71-6[2:1],{8}2x,2h[4:1],,,{4}3x,
4>3-8[4:1],7x,{16}7,,,6,
{8}1x,5,{4}5<8-4b[2:1],{8}3x,{16}3,2,{4}1h[4:1],
,2<8-4[8:3],6,7>1-5[8:3],
3,4qq8b[2:1],{8},6,{4}6h[4:1],
,1-5>3[8:3],7,8-4<6[8:3],
2,3-8[8:1],3/7-4[8:1],7/1-5[8:1],
1/6,7h[8:1]/4-2[8:1],7h[8:1],6h[8:1]/1v4[8:1],
6h[8:1],2h[8:1]/5-7[8:1],2h[8:1],3h[8:1]/8v5[8:1],
3h[8:1],{8}1,{16}6,5,{8}6,{16}3,4,{8}3,{16}6,5,
{8}7,{16}3,4,{4}2,{8}8/7,8/7,,1pp4[4:3]/5pp8b[4:3],
,1b/5b,{16},,,,,,,,,,,,,,,,2h[16:3],
,,3h[16:3],,,{8}4,{16}7h[16:3],,,6h[16:3],
,,{8}5,2x,1/3,,7x,{4}6/8,
{8}4x/5x,3-8[8:1]/6-1[8:1],{32},,,,,,,,,,,,,,,,E2,E3,E4,E5,E6,E7,E8,E1,
{4}Cf/E2,7-4V68b[2:1],{8}7/1,2,{16}3,,,2,
,,{8}1,{4}7/1>4[8:1],{16}6x,7x,{8}8x<5[8:1],{16},,3x,2x,
{4}1x,6-8[8:1],{8}6/3,3-1[8:1],,3/5,
5,5-8[8:1]*-2[8:1],,5b,{16},,,,E2,E3,E4,E5,
E1,E8,E7,E6,3,,,2/4,,,{8}1/5,{4}5/1-3[8:1],
1/6-8[8:1],6/4-1[8:1],5/4<7[8:1],3/4,
{16},,2,1,{4}2pp1[2:1],{16},,,,8,,,7,
,,{8}6,6,{16}3,4,{8}2,1-4[8:1]*-6[8:1],,1b,
,,{4}2-5V31b[2:1],{8}2/8,7,{16}6,,,7,
,,{8}8,{4}2/8<5[8:1],{16}3x,2x,{8}1x>4[8:1],{16},,6x,7x,
{4}8x,3-1[8:1],{8}3/6,6-8[8:1],,6/4,
4,4-8-2b[4:1],,6,{4}6,{16}E8,E7,E6,E5,
E1,E2,E3,E4,6,,,7/5,,,{8}8/4,{4}4/8-6[8:1],
8/3-1[8:1],3/5-8[8:1],4/5>2[8:1],6/5,
{16},,7,8,{4}7qq8[2:1],{8}1,1h[8:3],,,,,{4}2-5[8:1],
2/7-4[8:1],7/1-5[8:1],
{8}1/6,6,{16}4,3,2,1,4,5,6,7,5,4,3,2,
5,6,7,8,{4}1x/4x,{8}7/8,6/1,,2/4,
,7/5,4/8,6,1/5,3,4/8,6,
1/5,3,{16}7,8,7,8,6,1,6,1,5,4,3,2,
1,8,7,6,{8}5x/1x,{16}3,4,{8}2,1/5,1x/5x,{16}6,5,
{8}7,8/4,8x/4x,{16}3,4,{8}2,1/5,{4}5x/1x-3[8:1]*-5[8:1],
{8},,7h[8:1],4h[8:1],8h[8:1],2h[8:1],6h[8:1],4h[8:1],
7h[8:1],1h[8:1],{16}6,4,6,4,7,3,7,3,{4}8-5[8:1]*-3[8:1],
{8},,4x/7x,{16}6,5,{8}7,4,2x/5x,{16}3,4,
{8}2,5,4x/7x,{16}6,5,{8}7,8/4,{16}E4,E3,E2,E1,
E5,E6,E7,E8,3h[16:3],,,5h[16:3],,,{8}1,{16}6h[16:3],,,4h[16:3],
,,{8}8,{16}3,5,3,5,2,6,2,6,{4}1-4[8:1]*-6[8:1],
{16},,,,7-4[8:1],,,8,{8}7,1,{16}2-5[8:1],,,1,
{8}2,8,{4}7-3[8:1],7/5-1[8:1],5/8>3[8:1]*<5[8:1],
8x,{16}2-5[8:1],,,1,{8}2,8,{16}7-4[8:1],,,8,
{8}7,1,{4}2pp5[8:5],{16},,8x,7x,{4}6x-1b[8:1],
,7-4[8:1],{8}1/7,1-5[8:1],,1/8V24-1[8:3]*V64-7[8:3],
,8x,{16},,,,,,,,2/6,,,3/7,
,,{8}4/8,4/8,{16}6,5,{8}6,{16}3,4,{8}3,{16}6,5,
{8}7,{16}3,4,2h[16:3],,,5h[16:3],,,{8}3,{16}7h[16:3],,,4h[16:3],
,,{8}6,{16}2,1,2,1,3,8,3,8,4,7,4,7,
5,6,{8}5V31[4:1],,6,{4}6,7-4[8:1]*-5[8:1],
{8},,1x/2x,3/8,,8x/7x,{4}1/6,
{8}2x/7x,1bpp4b[2:1]/8bqq5b[2:1],,,,,,,,,{4}6h[1:1],
,B4,
B3,2h[1:1],{8},E5,,,{4}E6,
7h[8:3],{8},3h[2:1],,,,8V64-1p5b[8:5],
,2,{2}2h[2:1],
{4},2h[8:1]/6-8[8:1],2h[8:1],3h[8:1]/1-5[8:1],
3h[8:1],7h[8:1]/3-1[8:1],7h[8:1],6h[8:1]/8-4[8:1],
6h[8:1],{8}6,7/5,3,2/4,6,4/8,
3,1/5,2x/6x,3x/7x,4x/8x,1x-6[8:1]/5x-2[8:1],,1b/5b,
{32},,,,,,,,7x,6x,5x,4x,3x,2x,1x,8x,{4}7bx/3bx,{8}6,5/7,
3,4/2,{4}6<1b[8:1],{16}3x,4x,{8}5x>2b[8:1],{16},,1x,8x,
{4}7x,3V51[4:1],{8}3/6,6-8[8:1],,6/2v5[8:1],
3,2/8V64b[4:1],,8/1,{4}1,{16}E1,E2,E3,E4,
E8,E7,E6,E5,{8}3,{16}3,4,{8}2,1/5,{4}5/1v4[8:1],
1/7p3[8:1],7/2v5[8:1],2/8p4b[8:1],3/8,
{16},,2,1,{4}2pp1b[2:1],{8}8,8h[8:3],,,,,{4}7-4[8:1],
7/2-5[8:1],2/8-4[8:1],
{8}2/8,2,{16}5,6,7,8,5,4,3,2,4,5,6,7,
4,3,2,1,{4}8x/5x,{8}1/2,8/3,,7/5,
,4/2,5/1,3,8/4,6,5/1,3,
8/4,6,{16}2,1,2,1,3,8,3,8,{32}4,5,6,7,8,1,2,3,
4,5,6,7,8,1,2,3,{4}4x/7x,{16}6,5,6,5,7,4,7,4,
6,5,7,4,8<5[8:1],,,3,{8}8,2,{16}1>4[8:1],,,6,
{8}1,7,{4}8b,{16}3,4,3,4,2,5,2,5,
3,4,2,5,1>4[8:1],,,6,{8}1,7,{16}8<5[8:1],,,3,
{8}8,2,{4}1b,{16}6,5,7,4,6,5,7,4,
6,5,7,4,{4}8b,{16}3,4,2,5,3,4,2,5,
3,4,2,5,1b,,,7/5,,,{8}2/4,{16}1/8,,,5/6,
,,{8}3/4,{4}2bV84>2[2:1]/7bV15<7b[2:1],,,,1b/8b,
{16},,,,,,4,5,
{4}3bx/6bx,{8}2x/1x,{32}2/1,3,4,5,,,,,{8}8x/7x,{32}7/8,6,5,4,,,,,{8}1bx/8bx,
{32}8b/1b,2/7,3/6,4/5,
E
