&title=Gérard
&artist=Widowmaker
&first=-0.07
&des=Troublemaker
&wholebpm=160.000
&lv_5=14
&des_5=
&inote_5=(160){4},,{24}E4,E5,{12}E6,{3},{16}4,
6,5,6,{8}5,8,2h[24:5],{24}E6,E5,E4,{4},{16}1,
3,{8}1h[4:1],,4h[3:1],,{24}E4,E5,E6,{4},{16}5,
6,{8}5h[4:1],,7,5,8qq7[4:1],{4},{16}4,
3,{8}2h[8:3],{4},{16}8,1,{8}7h[12:7],,,,{24}E6,
E5,E4,{8},,,2,,5/3,
{24}6x,4x,5xh[24:7],3x,,,,,,{8}1xh,,2bx-4[8:1]/5bx-3[8:1],{4}2bx/5bx,
{8},7bxp3[8:1]/5bx-8b[8:1],{4}5bx/7bx,{8},1bx<6b[8:1]/3bx<6b[8:1],{4}3bx/1bx,
{8},8xh[4:1],,{32}E5,E4,{16},,,{8}2bxh[8:3],{4},{16}4,
3,5,4,6,5,{8}7,8,1q6[4:1],,6p8[4:1],
,8>3<6[16:5],,7,7,7p2[4:1],,2q8[4:1],
,8,,1>8[8:3]*<2[8:3],,,,,,{16}1,
8,2,7,3,6,4,5,{8}4h[4:1],,2h[4:1],
,1h[4:1],,6h[4:1],,8,8/7,7,
7/6,6,5/6,5,4/5,{16}2h[16:1],1h[16:1],3h[16:1],8h[16:1],4h[16:1],7h[16:1],
5h[16:1],6h[16:1],4h[16:1],5h[16:1],3h[16:1],6h[16:1],2h[16:1],7h[16:1],1h[16:1],8h[16:1],{24}1x,2,3,5x,6,7,1x,2,3,
5x,6,7,2x,3,4,6x,7,8,2xz6V41<6>3>1[8:7],3,4,6x,7,{12}8,{4},,,{16},,,{48},{8}8xh[8:3],
{4},{16}1<6[8:1],
8>3[8:1],{8},,,{2}4xz8b[16:3],
{24}7x,1x/6x,5x/2x,3x>8[8:1],,,,,,{8}7qq6[6:1],,1xV75[8:1]*V35[8:1],,,,8bx/3bxh[4:1],
{24}E7,E6,{6}E5,1h[4:1],{12},{8}8,2,
{16}4,4,{8}3h[8:1],7h[8:1],4-1-6-2b[16:5],{16}6,6,{8}4x,{4},{8}7xh[4:1],
1bx,E3/B3/A3,B8/E8/A8,{2}6xs2[4:1]/4xz8[4:1],
{8},{32}1x,2x/8x,7x/3x,6x/4x,{8},,,6h[8:1],1h[8:1],4h[8:1],
{32}1xv6q3[4:1],2x/5x,3x/6x,4x/7x,{8},,,8xh[8:1],5h[8:1],6h[8:1],3h[8:1],
4h[8:1],1h[8:1],{16}8,8,{8}5h[8:5],{2}7h[2:1],
{32},6x/4x,5x/3x,4x/2x,3x/1xh[4:1],2x,,8x,7x,6x,5x,4x,3x,2x,1x,8x,{2}7bxV58V26[8:3],
{8},{32}4x,3x,2x,1xh[32:5],{8},,,{32}3x/8x,4x,5x,6x,7x,8x,1x,2x,{8}3x-6-1[16:3]*V51b[16:3],
,3,{4},{8}1xh[8:1],4h[8:1],3h[8:1],6h[8:1],
{16}5,5,{8}8h[8:1],{16}2,2,{8}4x-7-2-6b[16:5],{16}3,3,{8}4x,{4},{32}3x,
4xV26-1[32:9],5x,6x,{8},,,{2}8xh[8:3],
{8},{32}8bx/4x,3x/7x,2x/6x,5x/1x,8x,7x,6x,5x,4x/8x,3x/7x,2x/6x,5x/1x,{2}8x>3b[8:1]/4x<7b[8:1],
{16}1,6,{8}3bx,{16}8,4,{8}6bx,1xh[8:1],4h[8:1],3h[8:1],6h[8:1],
5h[8:1],8h[8:1],1x,1xh[4:1],,{24}D6,D5,D4,{4},{16}2,
4,3,4,{8}3h[8:1],7,5,8x,8,8,
{16}8,3pp4[16:3],{8}7<4[8:1],,,,2x,2,2,
{16}2,4pp5[16:3],{8}3>8[8:1],,,,1x,1,1,
{16}1,6pp7[16:3],{8}2<7[8:1],,,,6x,5,4,
3,1,2,3,4,{24}6,5h[24:5],{6},{8}7p2[4:1],
,8xh[4:1],,,,2,2,{16}5,4,
6,5,{8}7,7,{16}4,5,3,4,{8}1,1,{16}6,4,
7,5,{8}8h[4:1],,1xh,,2b/5b,{4},{16}3,
4,{8}3,{16}7,5,{8}6,2h[24:5],{24}D6,D5,D4,{8},{16}2,4,
3,4,2,5,4,5,3,6,5,6,3,4,2,7,5,6,
3,6,4,5,3,5,2>8[2:1],4,3,4,{8}1pp2[4:1],{2},{16}1x,
8,2,7,3,6,{8}4qq5[8:3],{4},{8}6,
7,8,1<6[8:1],1,{16}4x,3,2,1,5x,4,
3,2,6x,5,4,3,7x,6,5,4,A2,E3,E4,A4,A1,B1,
C,B5,A8,E8,E7,A6,1x,2x,3x,4pp1[16:9],{8}8x<4>2<1b[2:1],,,,,,,,6pp3>5[16:9],
,{16}5,4,
3,2,{8}1xh[8:3],,,,8b,{4},{16}8,
3,{8}7,6/2,5/1,4/8,3/7h[4:1],,{16}D6,D5,
D4,D3,{8}1xpp2[16:3],,8>4[8:1]*<4[8:1],,8bxz4b[16:3],,,,1,
3/4,C,,{16}5x/1x>8[4:1],6x/2x,3x/7x,8x/4x,{8}5x/1xs5<6-4b[8:3],
,,,,,{16}8b,8,5,5,4,4,
2,2,1x,3,8x,4,7xp1[16:3],5,{8}6x,3xp5b[16:3],,,,8xh[4:1],
,4xh[4:1],,{16}7x,7h[8:1],5,5h[8:1],6,6h[8:1],
2x,2h[8:1],3,3h[8:1],1,1h[8:1],7x,7h[8:1],5x,5,{8}6bxp4>1<6[16:9],{4},{16}3,
2,{8}1xh[8:3],,,,{16}4b,4,2,2,{8}1,
3,5,6/2,3/7,4/8,5/1q7[4:1],,7xq5[4:1],
,5x<8>3[4:1]*q3[4:1],,,,A6/A4/D4/A5/A3/D6/D5f,,,,4bxh[8:1],
{16}5,4,{8}7x/3x,,{16}1,6xh[16:1],1,5h[16:1],1,4xh[16:1],
1,5h[16:1],1,6xh[16:1],1,5h[16:1],1,4xh[16:1],1,5h[16:1],2,6xh[16:1],2,5h[16:1],2,4xh[16:1],
2,3h[16:1],2,1xh[16:1],2,8h[16:1],3,7xh[16:1],4,6h[16:1],{8}5b,{16}3,3,{8}4,
2/8b,{16}6,6,{8}5,1b/7,{16}2,2,{8}4,1b/2,{16}8,8,
1,E1,E8,E7,E6,E5,D2,D3,D4,D5,{8}8xpp1<6b[8:3],,,,4xz8[16:3],
,,,7bh[8:3],,,,{16}1,
7,2,6,3,5,{8}4h[8:1],1-5[8:1],,,,{16}4,
6,3,7,2,8,{4}1h[4:1],{8}4,2/4-1[8:1],
,4/5qq4<7b[8:3],6,1x,,2bxh[4:1]/A5f/D6/D5,,{16}8x,1,
2,3,4/B1/E1/B8,5,6,7,8,1,2,3,4/1x,5/2,6/3,4/7,5/8,6,
7,8,{8}1xh[8:1],5h[8:1],3h[8:1],7h[4:1],{16}8x,1,2,3,4,5,
6,7,3x/8,1/4,2/5,3/6,4x/7x,5x/8x,{4}1xh[4:1],5h[4:1],
{8},{16}6x,6,5,5,3x,3,2,2,{32}8x,7x,6x,5x,4x,3x,2x,1x,8x/4x,7x/3x,6x/2x,5x/1x,
{64}8bxh[8:1]/4bxh[8:1],{8},{64}A1/B1/A5/B5,E2/B2/D2/D6/B6/E6,A2/E3/A6/E7/D7,{16}A3/B3/D3/A7/D8/B7f,{8},,,8x/5x-2-6b[4:1],,6x-3-8b[4:1],
,1bx,,7p1[6:1],,8x<4[8:1]*>4[8:1],,,,1x/6xh[4:1],
{24}E3,E4,{6}E5,8xh[4:1],{12},{24}4x,3x/7x,6x/2x,5x/1x,,,,,,{8}3,
{16}4,4,{8}2-5-8-3b[16:5],{16}8,8,{8}2x,,,,7h[8:1],
5h[8:1],6h[8:1],1h[8:1],{16}8,7,6,5,4x,3x/5x,
2x/6x,1x/7x,{8}8bxz4[16:3],,,,{24}2x,3x,4x,5x,6x,7x,1x/8xqq7[16:3],,,,,,{8}4b>1[8:1]/8xq5b[8:1],
{2},{8}1/5,1/5,
{16}2,4,{8}3,{12}6b/5b,,7b/8b,{8},2bxh[8:5]/Ch[8:5],{32},,,,,,,,,,,,,,,,,B1/B8,
E1f,A1/A8/D1,{2},{24}E6,E5,E4,
E
