&title=YUNYUN HARDCORE
&artist=MARON × nora2r (feat. Qちゃん (CV:ななひら))
&first=0
&lv_5=14
&des_5=スリラチャ
&inote_5=(170){1},
6hb[4:3]/1bv4v7[4:3]b,
{16},,,,,,6,5,6,,,,8bx,,2,,
8bxp1[4:1]b,,3,,4hx[8:1],,,,4hx[8:1],,,,5,4,5,4,
{1}5-7-3-1[2:1]b,
{16}8/1,,7,,8/1,,2,1,2,,8,1,8,,,,
8/1,,7/2,,6/3,,,,4,5,3,,6qq1[2:3]/2bqq5[2:3]b,,,,
{1}6/2b,
{4},,,8/1,
{8}5b/2b,3,7/4,6,5/2,3,7/4,6,
{16}5/1,,3,,8/4,,6,,5/1,,3,,5bx,5bx,5bx,5bx,
{1}5bx-7-1-3-5<5[1:1]*>5-3-1-7-5[1:1]b,
{8},,,,B6,B5,B4,B3,
7b<4[8:1],3>8[8:1],7,3,A7/B7,A5/B5,A3/B3,,
2b>5[8:1],6<1[8:1],2,6,A2/B2,A4/B4,A6/B6,,
8b/1b,2,2,2,8b/1b,7,7h[4:1],,
{1}1bxs5[2:1]b,
{16}7b/4b,,6,5,6,5,8h[8:1],,4bx>1[8:1],,7bx-5[8:1],,4bx,,7bx,,
8h[8:1],,7-4[8:1],8,6,1,7,,2,,5/3,,4,6,4,6,
{8}2b<7[8:1],2,5bv8[8:1],5,1b-3[8:1],1,7b,7,
{16}6/4,,2v5[8:1],1,3,8,2,,7,,6/4,,5,3,5,3,
8b<5[8:1],,4x,4x,8>3[8:1]b,,3-7[8:1]b,,8hb[64:1],,4hb[64:1],,6hb[64:1],,,,
5hb[8:1]/1h[8:1],,,7h[8:1]/3hb[8:1],,,5b/1,,7b,,7b,,4,5,4,5,
3b,,6,5,7b,,3,4,2b,1b,3b,8b,4b,7b,5b,6b,
3b,4,3,4,2,,6b,5,6,5,7,,8b/1b,7/2,6/3,,
{1}6bxpp4[1:3]b/3bxqq5[1:3]b,,,,
1>8[2:3]b,
1>8[2:3],
1>8[2:3]b,
1>4[2:1],
{24}A6,D7,A7,D8,A8,D1,A1,D2,A2,D3,{12}A3,5x<7[8:1]/4xq8[8:1],,,,,,
{2}4>2[8:1]/5p1[8:1],5<7[8:1]/4q8[8:1],
{24}A3,D3,A2,D2,A1,D1,A8,D8,A7,D7,{12}A6,{24}A3,D3,A2,D2,A1,D1,A8,D8,A7,D7,A6,,
{2}5x-8[8:1]/4xq8[8:1],4-1[8:1]/5p1[8:1],
{1}6h[4:3]/8v5v2[2:1],
1q8[2:1]/3h[4:3],
5h[4:3]/2-4-8-6[2:1],
{16}5/4,,,5/4,,,5/4,,7-4[8:1]/2-5[8:1]b,,,,,,,,
{4}6bpp1[2:1]b/5b,6,5,4,
3bqq8[2:1]b/4b,3,4,5,
7bpp2[2:1]b/6b,6,5,4,
2bqq7[2:1]b/3b,3,4,5,
{8}6b/8b,7,7,7,1b/3b,2,2,2,
7b/5b,6,6,6,4b/2b,3,3,3,
6b/5b,6/5,7b/4b,7/4,8b/3b,8/3,1b-6[8:1]b/2b-5[8:1]b,,
{16}1b/2b,,,,3,4,3,4,3,4,3,,8b<6[8:1]/1b-5[8:1],,,,
{8}1b>3[8:1]/8b-4[8:1],,8b/1b,,6<2[16:3],,6/5,4-6[8:1],
,4/3,2,1-6[8:1],,1/2,3,4,
{16}7/5,,1,,4/2,,8,,7/4,,6,5,7,,3,4,
2,,8,1,7,,6/4,,5/3,,4h[16:1]/2h[16:1],,1>4[8:1]/8-4[8:1],,7,,
{8}8b<5[8:1]/1b-5[8:1],,1b/8b,,3V17[16:3],,3/4,5>3[8:1],
,5/6,7,8v3[8:1],,8/7,6,5,
{16}4/2,,3,4,1,,6,5,8,,3,4,1,,1,,
{8}7-3[8:1]/3,8/2,7/3,,2-6[8:1]/6,1/7,2/6,,
8b-4[8:1],,8b<5[8:1]*>3[8:1],,8,,4,6h[4:1]/2,
,7>5[8:3],5,7,,,6,7,
{16}2/8,,4/6,,1/7,,3/5,,2/8,,6,4,8,,3,5,
1,,7/8,,5/4,,1b/2b,,1b/2b,,5,4,6,,7/8,,
{8}1b-5[8:1],,1b-4[8:1]*-6[8:1],,1,,5b,3h[4:1]/7b,
,2-8-6-4[8:3]b,4,2b,,,3,2,
7b/1b,8,7b/5b,6,5b/3b,4,3b/1b,2,
8-4[8:1],1>3[8:1],8<6[8:1],1-5[8:1],8p4[8:1],1,8,,
{16}1b,1,1,1,1,1,1,1,1b,1,1,1,1,1,1,1,
1b,1,1,1,1b,1,1,1,1b,1b,1b,1,1b,1b,1b,1b,
{8}1bx/2bx,4b/3b,8b/1b,5b/4b,7b/8b,6b/5b,1b/2b,5b/4b,
{16}7b/8b,,6b/5b,,4b/3b,,1b/2b,,7b,,7b,,4b,5b,4b,5b,
2b,1b,3b,,5b/4,,5/4b,,7b-3[8:1]b,8b,6b,,7/1b,,,,
4h[8:1]/2hb[8:1],,,8hb[8:1]/1h[8:1],,,7/5b,,6b,6b,6b,,4b,5b,4b,5b,
2b,4,3,4,1b,4,3,4,8b,4,1b,4,2b,4,3b,4,
{1}5bw1[8:5]b,
{64}A7f/2hb[4:1],B7f,Cf,B3f,A3f,
E
