&title=Imprinting
&artist=削除
&first=0
&des=albertoBradish
&lv_5=14
&des_5=albertoBradish
&inote_5=
(175){4},{1},,{32}1,
2x,3x,4x,5x,6x,7x,8x,1x,2x,3x,4x,5x,6x,7x,8x,{16}1xh[16:15],2x,3x,4x,
5,,,B6/E6/B5/E5,,,,B7/B8/E8/E1,,,,C,{48},,,,,,,,,,,,1/5,
6x/2x,7x/3x,8x/4x,,,,,,,,,,,,,,,{8}B2,{4}5h[8:1],{16}4,6,3,5,
{8}4x/2xh[4:1],,,B2,{4}5h[8:1],{16}4,6,3,5,
{4}4x/2x-5[8:1],6,7x-4[8:1],2,
{16}1bx,2,3,4,7bx,6,5,4,8bx,1,2,3,8bx,7,6,5,
{8}4x/3bxh[4:1],,,B7,{4}4h[8:1],{16}5,3,6,4,
{8}5x/7xh[4:1],,,B7,{4}4h[8:1],{16}5,3,6,4,
{4}5x/7-5[8:1],{8}4,3,{4}2x>5[8:1],{8}1x,8x,
{16}D8,B8,B2,D3,D7,B6,B4,D4,E1,E2,E3,E4,E5,E6,E7,E8,
{8}4bxh[4:1]/E1f/D1,,,5,5/4,5,5/2,5,
6/2<8[8:1],6,6/2x>4[8:1],6,6/2x-8[8:1],6,6/2x,6,
5bxh[4:1]/E8f/A7/B7,,,4,4,4,4/8x-6[8:1],4,
3/8x-4[8:1],3,3/8x,3,6-1[8:1]/3-8[8:1],5x/4x,{4}3x/6x,
{8}5bh[8:3],{16}6x,7x,8x,1x,2x,3x,{8}4x-1[8:1]*-7[8:1],5,{4}4b,
{8}4bxh[8:3],{16}3x,2x,1x,8x,7x,6x,{8}5x<8[8:1]*>2[8:1],4,{4}5b,
1b-5[8:1],1x/7-3[8:1],7x/2b>5[8:1],2x/6<1[8:1],
6x-2[2:1],6x/Ch[2:1],,,3bx/5x,
{8}3,8,4,4,{16}5,3,8,1,
{4}6b/2x,{8}6,1,5,5,{16}4,6,1,8,
{4}7x/3b-5[8:1],{8}8-6[8:1],8,3,2,{4}1/5x,
{16}1/5b,8,7,6,5/1b,4,3,2,1/5b,6,7,8,5b/1,4,3,2,
{4}1/6b,{8}6,1,5,5,{16}4b,6,1,8,
{4}3b/7x,{8}3,8,4,4,{16}5b,3,8,1,
{8}2x/6b-4[8:1],6,1-3[8:1],1,6b,7,8,8,
2xh[16:1]/1xh[16:1],2h[16:1]/1h[16:1],3xh[16:1]/8xh[16:1],3h[16:1]/8h[16:1],7xh[16:1]/4xh[16:1],7h[16:1]/4h[16:1],{4}A6/E6/A5/D6,
{8}3b/Cf,3,3/5x,3,4/7,4,4/5x,4,
5/8-6[8:1],5,5/8x-2[8:1],5,4/8x<5[8:1],4,8x/4-8[8:1],3,
{4}4/5x,{8}6/1,6,7/3,7,7/1,7,
8/2-8[8:1],8,7/2-5[8:1],7,2/6<3[16:3],7x,{4}6x,
{8}4bxh[8:3],{16}3,2,1,8,7,6,{8}5-8[8:1]*-2[8:1],4,{4}5b,
{8}4b/5bh[8:3],{16}6,7,8,1,2,3,{8}4>1[8:1]*<7[8:1],5,{4}4b,
8bx-4[8:1],8b/2b-6[8:1],2b/7bx<4[8:1],7b/3b>8[8:1],
3b/7b,B6/E7/B7/Ch[2:1],{8},,,,2bx>5[16:3],
6,7,8,1p5[8:1],4,3,2,
1x>4[16:3],5,6,7,8p4[8:1],2-5[8:1],8x,2x,
7,7,6/1,6,{4}3/5<1[16:3],{8}3,4,
5xV31[16:3],8x,7,6,{4}5x-2[8:1],5/8x,
{8}7<4[16:3],3,2,1,8q4[8:1],5,6,7,
8<5[16:3],4,3,2,1q5[8:1],7-4[8:1],1x,7x,
8b,{16}1x,5x,2x,6,3,7,{8}4,2bx/7b,4b/2bx,5bx/7b,
1b/3bx,{16}8x,4x,7x,3,6,2,{8}5,1b/5bx,3b/7bx,1bx/5b,
{4}4b/8bx<1[2:3],{16}E5,,,B1,{8}B2,E4,E5,E6,
{4}E7,E3,{2}Ch[4:1],
{8}7bx/2bx,{16}6,5,{8}6,7,8/3,{16}3,1,{8}3,4,
5x/6x-1[8:1],4,6/3,2,2-5[8:1],3,{4}2x/8-4[8:1],
8<5[4:1],5x>2[4:1],2<7[4:1],7,
5-1[8:1],5/6,4-8[8:1],4/3,
{8}2b/7bx,{16}3,4,{8}3,2,1/6,{16}6,8,{8}6,5,
4x/3x-8[8:1],5,3/6,7,7-4[8:1],6,{4}7x/1-5[8:1],
1>4[4:1],4x<7[4:1],7>2[4:1],2,
{16}4x,5,6,7,2x,3,4,5,{24}1x,8,7,6,5,4,8x,1,2,3,4,5,
{16}7b,1,7,1,5,2,5,2,7,6,5,4,2,3,4,5,
1,2,1,2,8,4,8,4,7,6,5,4,8,1,2,3,
{4}7/4h[4:1],{8}6-1[8:1],6,3-8[8:1],3,6,5,
4<7[8:1],8,1,3,5>2[8:1],1,8,6,
{16}5,1,5,1,6,2,6,2,7,3,7,3,{32}8/4x,1x,2x,3x,4x,5x,6x,7x,
{4}8x/3x-7[8:1],3/6-2[8:1],6/2,{32}1x,2x,3x,4x,5,6,7,8,
{8}1b/5bx,1,1/7,{16}1,2,{8}3/6,3,3/8,{16}3,4,
{8}5/6-1[8:1],7,6x/2-4[8:1],3,5-8[8:1],6,5x/3x,2,
{16}1x,5,3,4,1x,5,4,5,1x,6,5,6,2x,7,5,7,
5,4,3,2,1/5,6,7,8,{8}1/2,1/2,3/4,3/6,
8b/4b,8,8/2,{16}8,7,{8}6/3,6,6/1,{16}6,5,
{8}4/3-8[8:1],2,3x/7-4[8:1],6,7x/1-5[8:1],2,{4}1x/8,
{16}8x,7,6,5,2x,1,8,7,5x,4,3,2,5,4,3,2,
{8}1-5[8:1],8x/2x,1x,6x,7h[32:1]/8h[48:1],6h[32:1]/8h[48:1],2h[32:1]/1h[48:1],3h[32:1]/1h[48:1],
8b/4,8,8/2,{16}8,7,{8}6/3,6,6/1,{16}6,5,
{8}4/3-7[8:1],4,4/3>8[8:1],4,4/3,5,6,7,
{16}8b,4,6,5,8b,4,5,4,8b,3,4,3,7b,2,4,2,
6bx,5,7,4,8,3,1x,2x,{8}1x-6[8:1],8,1x/3-8[8:1],2,
5b/3b,6,1/7-4[8:1],{16}1,8,{8}7b/2,2,2-5b[8:1],{16}1,8,
{8}2b/7-4[8:1],8,7b/2>5b[8:1],1,2b/7<4[8:1],8,7b,2,
{16}8bx/1,7,6,5,3b,2,1,8,6b,5,1b/4,2,7b/3,6,2b/5,3,
{8}4/8<5[8:1],5x>2<7[4:1],{4}2x,{32},,,,,,,,4,5,6,7,8,1,2,3,
{8}4/5,{16}6,6,{8}5/7,4/2,{16}8,1,7,2,{4}3xh[8:1]/6xh[8:1],
{32}1b/8b,2x/7x,3x/6x,4x/5x,,,,,{8}6,1,5,5,{16}4,6,1,8,
{8}3b/7,3,3,8,4,4,{16}5,3,8,1,
{8}2/6b-4[8:1],6,1-3[8:1],1,6b,7,8,8,
{16}2b,1,2,1,3b,8,3,8,4b,7,4,7,5b,6,5,6,
{8}4b/7,3,3,8,4,4,{16}5,3,8,1,
{8}6b/2,6,6,1,5,5,{16}4,6,1,8,
{8}7/3b-5[8:1],3,8-6[8:1],8,3b,2,1,1,
{16}7,8,6,1,5,2,4,3,1,8,2,3,8,7,4,5,
{48}A6,B6,C,B2,{12}A2,
E
