&title=インフェルノシティ
&artist=Ponchi♪ feat.はぁち
&first=0.503
&des=1zumi lay on the track and died.
&lv_6=14+
&des_6=1zumi lay on the track and died.
&inote_6=
(215){4},,,,{48}A6,
E6,B5,B4,E4,A3,{8}6b,5,4,3h[8:3],,,6x,
5,4,{4}3h[8:7],{8},,,,,6h,
5,4,3h[8:3],,,6,
5,4,{4}3,{8},,,,,6x/Ch[2:3],
6,6,6,6,6,7x,
7,7,7,7,7,7,7,7,
7,{16}5x,7,5,7,4,6,4,6,3,5,3,5,2,4,
2,4,{32}1x,2,3,4,5,6,7,8,1,2,3,4,5,6,7,8,{8}1b,,,{4}4/6h[4:1],
{8}4,3,{4}5/2h[4:1],{8}8,7,
{4}3/6h[4:1],{8}1,2,3/6,4,5,6,
{4}7/4h[4:1],{8}1,8,7/4,6,5,4,
{4}3/7h[4:1],{8}5,5,4/6,4/6,3/5,3/5,
{4}4/2h[4:1],{8}7,6,{4}5h[4:1],{8}3,2,
{4}1h[4:1],{8}4,5,6/1,7,8,1,
{4}2/8h[4:1],{8}3,4,5/8,4,3,2,
{4}6/2h[4:1],{8}6,5,4/3,3/4,4/5,4/5,
5/6<1[16:3],5/6,,,6/5q2[16:3],6/5,,,7,
6,5,4h[8:3],{2}3h[4:1],
{8}4/3>8[16:3],4/3,,,3/4p7[16:3],3/4,,,5,
5h[8:5],,6,{2}6h[4:1],
{8}3,2,{4}1h[2:1],{8}8,7,{4}6h[4:1],
{8}1,1-5[8:1],,6,{2}6-8[8:1],
{4}7/4,{16}5,6,4,5,3,6,4,5,3qq5b[16:9],6pp4b[2:1],4,5,
3,6,,,,,,,{2}E5f,
{8}7-4[8:1],8/6,7,1,2-6[8:1],3/1,2,8,
7-3[8:1],7,1-5[8:1],1,8p4[8:1],8,2-5[8:1],2,
8v3[8:1],7,8,1,2-6[8:1],1/3,2,8,
7-4[8:1],7,3-8[8:1],3,6-1[8:1],6,2-5[8:1],2,
7-3[8:1],6,7,1,2-5[8:1],1/3,2,8,
7p4[2:1],7,1,2-5[8:1],{2}2,
{8}3/4,4h[8:13]/3h[4:1],,,{4}8,{8}1,2,
3,3v6[8:1],,3,,3-8[8:1],,3,
,8x/Ch[4:7],1,2,{4}3,{8}3,3,
,4,{4}4,{8}5,5p1[8:1],,,,7/Ch[8:11],
6,5,{4}4,{8}4,5,
6,7,8<4[4:1],1,,,,,,2/Ch[8:7],
1-3[8:1],8,{4}1b-7[8:1],1b-5[8:1],
1b,{8}6,6,6,3h,4h,5h,
6h,Ch[1:1],{16},,,,,,,,,,,,,,E6,
E5,{4}E4,{16},,,,,,,,,,6x/1x,
2,3,4,5,6,7,8,1,2,3,4,5/7x,6,
5,4,3,2,1,8,7,6,5,4,3,2,1,8,7,6,
{8}5h[8:9],,,4,,3,,2,
{16},,1x,2,3,4,5,6,7x,8,1x,2,3,4,8x/5x,1,
2,3,4x,5,6,7,8x/3x,4,5,6,7x,8,1,2,3,4,
5x,6,7x,8,1,2,{8}3bx,,,,6h[1:1],
,Ch[4:3],,,,,,,,,,,,6/3,
{16},,4,5,
4,5,{8}4,4,6v3[2:1]/3v6[2:1],,,,,,,,5/4,
5/4,5/4,5/4,5/4,
5/4,5/4,,2,2h[4:1],,,6,
{16},,2b,6,5,6,5,6,1bx,5,4,5,4,5,8bx,4,
3,4,3,4,{4}7bx,{8}5h[8:3],,,1,
,2/4,3h[16:1],3h[16:1],{4}7/2-6[8:1],2/7-3[8:1],
7/2,{8}5h[16:1],5h[16:1],5h[16:1],1h[16:1],2h[16:1]/8h[16:1],3h[16:1]/7h[16:1],
4h[16:1]/6h[16:1],5bw1b[1.814##0.1395],,,,,,,,,,,,,,,8x/2x,
3/7,4,6/4h[4:1],7,8,4,3,
2x/7x,2/6,5,1/5h[4:1],2,3,5,6,
7x/4x,7/3,2,8/2h[4:1],7,6,2,1,
{32}1b/5bxh[8:1],2,3,4,,,,,7b/3bxh[8:1],6,5,4,,,,,2b/6bxh[8:1],3,4,5,,,,,8b/4bxh[8:1],7,6,5,,,,,{8}3x/5x,
2,2/4,3/5,6,7/5,6/4,3,
8/2,7,7/5,4/6,3,3/5,6,4/6,
3,3/5,2,1/8,7,6/5,5/4,3/4,
1,6/5,8,2/1,4,6/5,5/6,4/3,
4/3,6h[8:1],{32}1bx,2,3,4,{8}6h[8:1],{32}1b,2,3,4,{8}7h[8:1],{32}2b,3,4,5,{8}7h[8:1],
2b,2h[8:1],{32}7b,6,5,4,{8}2h[8:1],{32}7b,6,5,4,{8}2h[8:1],{32}8b,7,6,5,{8}3h[8:1],
{32}8b,7,6,5,{8}3h[16:1],3h[16:1],3h[16:1],{4}2b-6[8:1],2b/8bw4[8:1],
{8}8b,,,6,5/6,4,3,4/3,
5,6,,7,{16}5,6,{8}5,6,4/5,
3,1/2,8,7/5,3,2/8,7,6/5,
4,{24}3/7b,6,5,4,3,2,1,8,7,2b/6,3,4,5,6,7,8,1,2,5b/3,4,3,
2,1,8,7,6,5,1b/4,2,3,4,5,6,7,8,1,2,3,4,{4}5,
7/2q6[8:1],{8}2/7p3[8:1],7,7/1-5[8:1],1,1/8-4[8:1],8,
8/2q6[8:1],2,2/7-4[8:1],7,7/1-5[8:1],1,1/8p4[8:1],8,
8/2v5[8:1],2,2/7-3[8:1],7,7/1q5[8:1],1,8/1,8,
{32}8b/4bxh[8:1],7,6,5,,,,,2b/6bxh[8:1],3,4,5,,,,,7b/3bxh[8:1],6,5,4,,,,,1b/5bxh[8:1],2,3,4,,,,,{8}7x/1x,
6,6/5,5/3,2,3/4,4/6,7,
8/2,3,4/5,6/5,7,8/2,1,8/7,
6,{16}3,4,3,4,3,4,{4}2b-6[8:1],2b/8bw4[8:1],
8b,{8}5x,3,4/6,2,3/5,8,
{48}A3,E4,B4,B5,E6,A6,,,,,,,{8}7,4/3,1,8/6,5,4/2,
5/3,7,3/1,2,3/4,4/5,5/6,8,
1/2,3,6/4p8[8:1],7,{4}4b/7bp3[8:1],7b/1bw5[8:1],
1b,{8}6x,6q2[8:1]/4p8[8:1],{24},,,,,,,,,,,,{3}3x/5x,
{6}6h[12:1]/5h[12:1],3h[12:1]/1h[12:1],8h[12:1]/6h[12:1],4h[12:1]/3h[12:1],
7h[12:1]/5h[12:1],2h[12:1]/1h[12:1],6h[12:1]/4h[12:1],7h[12:1]/1h[12:1],4h[12:1]/2h[12:1],8h[12:1]/7h[12:1],
2h[12:1]/3h[12:1],4/6,{24},,,,,,,{8}B7,,,,E2,
,,B3,,,B5,
,Ch[8:13]/1-5b[8:11],{1},{4},,,{64}1bx/Cf,
D2,2bx,D3,3bx,D4,4bx,D5,5bx,D6,6bx,D7,7bx,D8,8bx,D1,1bx,D2,2bx,D3,3bx,D4,4bx,D5,5bx,D6,6bx,D7,7bx,D8,8bx,D1,1bx,D2,2bx,D3,3bx,D4,4bx,D5,5bx,D6,6bx,D7,7bx,D8,8bx,D1,1bx,D2,2bx,D3,3bx,D4,4bx,D5,5bx,D6,6bx,D7,7bx,D8,8bx,D1,
1bx,D2,2bx,D3,3bx,D4,4bx,D5,5bx,D6,6bx,D7,7bx,D8,8bx,D1,1bx,D2,2bx,D3,3bx,D4,4bx,D5,5bx,D6,6bx,D7,7bx,D8,8bx,D1,1bx,D2,2bx,D3,3bx,D4,4bx,D5,5bx,D6,6bx,D7,7bx,D8,8bx,D1f,,,,,,,,,,,,,,,,,{8}3x/5,
1,7/5,6/4,5/3,7,2/4,3/5,
4/6,3,2/1,8,7/5,4,5/6,7,
2/8,3,3/4,4/5,5/6,7,7/5,6/4,
5/3,2,{16}1,4,2,5,3,6,4,7,3,6,2,5,
{8}4x/3x,2,3/5,4/6,5/7,8,6/5,5/4,
4/3,1,5/6,7,4/2,1,8/7,6,
5/3,2,1/7,3,4/6,7,2/8,4,
5/6,8,{16}2,3,4,5,1,2,3,4,8,1,2,3,
{2}8-4[2:3],{8}7h,,,2h,
,,{4}6h,{8},3h,{16},,,,,,2,
1,3,8,4,7,1,8,2,7,3,6,8,7,
1,6,2,5,3,8,4,7,5,6,{8}1xh[16:1]/2xh[16:1],3h[16:1]/8h[16:1],4h[16:1]/7h[16:1],
{32}1b/2b,3/8,7/4,6/5,
E
