&title=Judgement
&artist=Tatsunoshin
&first=0.061
&des=BITF
&lv_5=14
&des_5=BITF
&inote_5=
(200){4},{8},,,,,,,,,,,,,,5h[4:1],
4,3,6h[4:1],5,4,5h[4:1],4,
3,6h[4:1],5,4,3,5,4,6,
4h[4:1],5,6,3h[4:1],4,5,4h[4:1],5,
6,3h[4:1],4,5,6,4,5,3,
5h[4:1],3,4,6h[4:1],4,5,5h[4:1],3,
4,6h[4:1],4,5,3,4,5,6,
4h[4:1],6,5,3h[4:1],5,4,4h[4:1],6,
5,3h[4:1],5,4,6,5,4,3,
{1}C,
{8}7/8,6b/5b,,8/1,{4}6b/5b,{8}1/2,6b/5b,
,2/3,{4}6b/5b,{16}3/4,5,6,7,1,2,3,4,
{8}5/7,8b/1b,,6/4,{4}8b/1b,{8}3/5,8b/1b,
,2/4,{4}8b/1b,{16}8/1,7,6,5,1,2,3,4,
{4}5/6<1[4:1],1-5[4:1],5>2[4:1],2-6[4:1],
6-8b[4:1],8v1b[4:1],1-3b[4:1],3,
{2}5-1[8:1],4-8[8:1],
{6}1x/2x,7/8,2/3,7/6,3/4,6/5,
{8}4/3h[8:3],5,6,7,5/4h[8:3],6,7,8,
6/5h[8:3],7,8,1,8,7,6,5,
3/4h[8:3],2,1,8,7,6,5,4,
3/5,2/6,1/7,8b,7/1,6/2,5/3,4b,
7-5[8:1],8,7,8,2-4[8:1],1,2,1,
7-5[8:1],8-4[8:1],7,8,1-5[8:1],2-4[8:1],1,2,
{16}8,7,6,5,1,2,3,4,6,5,6,5,6,5,6,5h[16:9],
,,,,,,,,{2}Ch[2:1],
{4}3,{8}3,8,3/7,6,3,7,
3,6,3,8,7/3,6,{4}5/2h[4:1],
5,{8}5,1,5/2,3,5,2,
5,5,4,4,5,3,{4}7b-5>4[8:1],
{8}2-4<5[8:1],1,7-5>4[8:1],8,2-4<5[8:1],1,7-5>4[8:1],8,
2-4<5[8:1],1,7-5>4[8:1],8,2,1,1-3<4[8:1],1,
A1/8-6>5[8:1],8,A8/1-3<4[8:1],1,A1/8-6>5[8:1],8,A8/1-3<4[8:1]*-4[8:1],1,
A1/8-6>5[8:1]*-5[8:1],8,A8/1-3<4[8:1]*-4[8:1],1,8/A1,8,{4}8b,
{8}1-3[8:1],5,1-7[8:1],5,1-3[8:1],5,{4}1,
{8}8<6[8:1],4,8>2[8:1],4,8<6[8:1],4,{4}8,
1b,1,8b,8,
{8}2,2,7,7,{16}3,4x,6,5x,{4}1b-5[8:1]*-3[8:1],
1b-6[8:1]*-4[8:1],1b-7[8:1]*-5[8:1],1b-6[8:1]*-4[8:1],1b-5[8:1]*-3[8:1],
1b-6[8:1]*-4[8:1],1b-7[8:1]*-5[8:1],1b,{8}4b-8[8:1]*-2[8:1],4b,
{4}4b-7[8:1]*-1[8:1],4b-6[8:1]*-8[8:1],4b-7[8:1]*-1[8:1],4b-8[8:1]*-2[8:1],
4b-7[8:1]*-1[8:1],4b-6[8:1]*-8[8:1],4b,{8}7,{32}1,2,3,4,
{4}5/8,7/4,3/6,{8}5/2,5/2,
{4}5/2,6/3,7/4,{8}8/5,5/8,
7/4,7/4,6/3,6/3,{16}2,5,2,5,2,5,2,5,
{4}2V46b[8:1],8V64b[8:1],1-5b[8:1],1b,
{16},,6,4,5,3,6,4,6,3,5,3,6,4,5,3,
8,4,6,4,8,3,5,3,7h[16:3],,,1h[16:3],,,{8}3h[8:1],
5h[8:1],{16}6-8[8:1]*-1[8:1],5,,,{8}6-3[8:1]*-4[8:1],,6-2[8:1],,6,
{16},,1,2,{4}3,{16}5,4,6,3,5,4,6,3,
{8}8bh[8:5],1,6,1,6,{16}1,8,3,6,4,5,
{8}1bh[8:5],8,3,8,3,{16}8,1,6,3,5,4,
{8}8,3b/4b,,8/1,{4}5b/6b,{8}8/1,4b/3b,
,8/1,{4}8b/1b,{16}3,8h,4,5h,1,6h,4,5h,
{4}2,{8}1/2,{16}5x,3,1x,4,5x,4,8x,3,4x,3,
{4}7x,{8}8/7,{16}4x,6,8x,5,4x,5,1x,6,5,6,
{4}2x,{8}3/1,6/8,5,1/2,4,8/7,
5,4,6/8,1/3,{16}6,1h,5,4h,8,3h,5,4h,
{4}7-5[8:1],{8}7,{16}8,8,{8}8,5,1,4,
{4}2-4[8:1],{8}2,{16}1,1,{8}1,4,8,5,
{6}6/7,8/5,1/4,2/3,1/4,8/5,
{2}7h[4:1]/6h[4:1],2h[4:1]/3h[4:1],
1b/8bp5[4:5],2,
3,4,
{4}E3,E4,E5,E6,
{1}E7,
{2}8/1v4-1[4:5],7,
6,5,
{4}E7,E8,E1,E2,
{1}E3,
{2}8/1-5[4:5],6,
4,2,
{4}3,4,5,6,
{1}7,
{2}1/8-4[4:5],3,
5,7,
{4}6,5,4,3,
2b,,,C,
{8}6/1h[4:1],5,7,3/8h[4:1],4,2,6/1h[4:1],5,
7,3/8h[4:1],4,2,{16}3,6,4,5,1,5,{8}4,
3/8h[4:1],4,2,6/1h[4:1],5,7,3/8h[4:1],4,
2,6/1h[4:1],5,7,{16}6,3,5,4,8,4,{8}5,
3/1h[4:1],4,5,6/8h[4:1],5,4,3/1h[4:1],4,
5,6/8h[4:1],5,4,{16}3,2,1,8,7,6,5,4,
{8}3/1h[4:1],4,5,6/8h[4:1],5,4,3/1h[4:1],4,
5,6/8h[4:1],5,4,{16}1,2,3,4,8,7,6,5,
{8}1,{16}5,4,5,4,5,4,5,4,5,4,5,4,5,4,
6,3,6,3,6,3,6,3,6,3,6,3,6,3,6,3,
5,2,4,1,5,2,6,3,7,4,8,5,7,4,6,3,
{4}5-8b[2:1],E2,C,E6,
{8}2/7h[8:1],{16}3,5,1,5,{8}3,{16}8,4,6,4,{8}8,3,
4/7h[8:1],3,5/2h[8:1],6,{16}5b,6h,{8}4,{16}5b,4h,{8}6,
7/2h[8:1],{16}6,4,8,4,{8}6,{16}1,5,3,5,{8}1,6,
5/2h[8:1],6,4/7h[8:1],3,{16}4b,3h,{8}5,{16}4b,5h,{8}3,
7/2h[8:1],{16}4,6,1,5,3,5,8,6,{8}4,8/3,4,
5/1h[8:1],6,5/8h[8:1],4,5/2h[8:1],6,5/7h[8:1],4,
1/6,4,8/3,5,8/4,1,8/4,5,
{1}8bw4[2:1]/4bw8[2:1],
{8}2/7h[8:1],{16}3,5,1,5,{8}3,{16}8,4,6,4,{8}8,3,
4/7h[8:1],3,5/2h[8:1],6,{16}5b,6h,{8}4,{16}5b,4h,{8}6,
2/7h[8:1],4,1/3h[8:1],5,7/2h[8:1],5,8/6h[8:1],4,
{6}7/5,2/4,6/8,1/3,4/5,8/1,
{8}7/8,{16}3,4,{8}3,7/8,{16}3,4,{8}3,7/8,1/8,
1/2,{16}6,5,{8}6,1/2,{16}6,5,{8}6,1/2,1/2,
8/6,{16}5,4,{8}5,3/1,{16}4,5,1,8,4,5,,2,
{4}7bw3[4:1],,,C,
{8}7/8,8/1,{4}1/2,{32}2,3,{16}4,{32},,8,7,{8}6,{32}2,3,{16}4,
{32}7,6,{16}5,{32},,1,2,{8}3,{32}7,6,{16}5,{32}2,3,{16}4,{32},,8,7,{8}6,{32}2,3,{16}4,
{2}8h[4:1],{32}2,3,{16}4,{32},,8,7,{8}6,{32}2,3,{16}4,
{32}7,6,{16}5,{32},,1,2,{8}3,{32}7,6,{16}5,B1,B2,B3,B4,B5,B6,B7,B8,
{2}Ch[4:1],{32}7,6,{16}5,{32},,8,7,{8}6,{32}7x,6x,{16}5x,
{32}2,3,{16}4,{32},,1,2,{8}3,{32}2x,3x,{16}4x,{32}7,6,{16}5,{32},,8,7,{8}6,{32}7x,6x,{16}5x,
{8}2,4,7,5,2/4,3/5,6/4,7/5,
{1}1bw5[2:1]/8bw4[2:1],
{8}6h[8:1],{16}4,5,{8}4,6h[8:1],{16}4,5,{8}4,6,C,
3h[8:1],{16}5,4,{8}5,3h[8:1],{16}5,4,{8}5,3,C,
6,6,3,3,{16}7,2,7,2,8,1,8,1,
{4}8-6[8:1],8/1-5[8:1],1/2-4[8:1],2,
{1}Ch[4:3],
{8}6,8,3,1,{16}5,4,5,4,{4}8b,
{8}2/7h[8:1],{16}3,5,1,5,{8}3,{16}8,3,4,3,{8}8,3,
4/7h[8:1],3,4/2h[8:1],5,4/6h[8:1],3,4/2h[8:1],5,
6/1h[4:1],4,6,3/8h[4:1],5,3,6,4,
6/1h[4:1],8,6,3/8h[4:1],1,3,6,4,
8/3,5,1/6,4,1/5,8,1/5,4,
{16}8,7,6,5,1,2,3,4,8,7,6,5,{4}C,
{8}7/2h[8:1],{16}6,4,8,4,{8}6,2/7h[8:1],{16}3,5,1,5,{8}3,
2/1h[8:1],4,7/8h[8:1],5,{16}1,4,{8}3,{16}8,5,{8}6,
1/2h[8:1],4,8/7h[8:1],5,8/1h[8:1],4,1/8h[8:1],5,
{6}8b/1b,2b/1b,8b/7b,4b/5b,5b/6b,3b/4b,
{8}1/6,{16}7,8,{8}7,1/6,{16}7,8,{8}7,6/1,7/2,
8/3,{16}2,1,{8}2,8/3,{16}2,1,{8}2,8/3,7/2,
6/1,{16}7,8,{8}7,6/1,{16}4,5,1,8,4,5,2,7,
{1}4bw8[2:1],
{8}4h[4:1],5,6,3h[4:1],4,5,4h[4:1],5,
6,3h[4:1],4,5,6,3,4,3,
5h[4:1],4,3,6h[4:1],5,4,5h[4:1],4,
3,6h[4:1],5,4,3,5,4,C,
E
