&title=Androgynos A
&artist=WAiKURO
&first=0.14
&lv_5=14.6
&des_5=Pagasus
&inote_5=
(192){4},,,,{8}2h[16:5]/6h[16:5],
{4},{8}1h[16:5]/5h[8:3],{2},{8}1-5[8:1],
8-4[8:1],1,8,1>3[8:1],3-7[8:1],7<5[8:1],5,
{4},{8},1-6[8:1]*-4[8:1],,B6/B5/B4,{4},{8}5h[16:5]/1h[16:5],
{4},{8}3h[16:5]/7h[4:1],{16},,,6,4,6,4,6,
{4}4>2-6[4:1],6<8-4[4:1],5,7,
{8}5-1[8:1],4-8[8:1],5,4,7<5[8:1],5-1[8:1],1>3[8:1],3,
{4},{8},8-5[8:1]*-3[8:1],,B5/B4/B3,{4},{8}1-7[8:1],
7-3[8:1],3-6[8:1],6,{4},{16}7,8,7,8,
{4}7-4[8:1],7/2-5[8:1],2/6-1[8:1],6,
{8}4-8[8:1],5-1[8:1],4,5,3<5[8:1],5-1[8:1],1<7[8:1],7,
{4}6-3[8:1],6/2-5[8:1],2/7-2[8:1],7,
{8}4-1[8:1],5-8[8:1],4,5,2h[16:1],6h[16:1],3h[16:1],7h[16:1],
{16}3,4,3,6,5,6,3,2,4,6,5,7,3,4,3,6,
5,6,4,5,4,5,4,5,4,6,3,6,3,7,2,7,
2,8,1,8,1,8,1,8,1,8,1,8,{24}1,8,1,8,1,8,
1,2,3,8,7,6,2,3,4,7,6,5,1,2,3,4,5,6,7,8,1,2,3,4,
{4}5-1[8:1],5/7-3[8:1],7/2-6[8:1],2/7-4[8:1],
7/3-8[8:1],3/6-3[8:1],6/2-7[8:1],2/6,
8-5[8:1],8/4-1[8:1],4/7-4[8:1],7/3-8[8:1],
3/7<5[8:1],7/1>3[8:1],{8}1/8-4[8:1]*s4[8:1],8b,{4},1h[4:1]/8-6[8:1],
8,2h[4:1]/7-4[8:1],7,
1h[4:1]/8-5[8:1],8,2h[4:1]/7<5[8:1],7,
8h[4:1]/2-5[8:1],2,7h[4:1]/1-5[8:1],1,
{8}2/6,7,2/6,1,{16}2h[8:1]/6h[8:1],{8},{16}4h[8:1]/8h[8:1],{8},5h[8:1]/1h[8:1],
,{16}4h,5h,{8}4h,3,1/2,1,1/4-8[8:1],4,
4/7-3[8:1],7,7/1-4[8:1],1,1/5-8[8:1],5,5/2-4[8:1],2,
2/6-1[8:1],6,6/3<5[8:1],3,3/7-2[8:1],7,7/4-1[8:1],4,
4/8-5[8:1],8,8/3-8[8:1],3,3/7-4[8:1],7,7/1,1,
8-4[8:1],1,8,2-8[8:1],7-3[8:1],2,7,4-2[8:1],
8-4[8:1],4,8,2-4[8:1],1-5[8:1],2-6[8:1],1,2,
7-5[8:1],8-4[8:1],7-3[8:1],8,7,2h[16:3],{4}1h[16:3],
{16}6h,5,7,3h,4,2,5h,4,6,3h,4,2,7h,8,6,3,
{4}1>4[8:1],1/8<5[8:1],8>3[8:1],8-4b[8:1],
{8}8-6[8:1],1-5[8:1],8,1,8h[8:1],7h[8:1],6h[8:1],5,
{4}8<5[8:1],8/1>4[8:1],1<6[8:1],1-5b[8:1],
{8}1-3[8:1],8-4[8:1],1,8,1h[8:1],2h[8:1],3h[8:1],4,
{4}1>4[8:1],1/8<5[8:1],8>3[8:1],8-4b[8:1],
{8}8-6[8:1],1-5[8:1],8,1,8h[8:1],7h[8:1],6h[8:1],5,
{4}1>4[8:1],1/8<5[8:1],8>3[8:1],8-4b[8:1],
{8}8-6[8:1],1-5[8:1],8,1,8h[8:1],7h[8:1],6h[8:1],5,
{4}7-2[8:1],7/3-6[8:1],3/5-8[8:1],5/1-4[8:1],
{8}1/7h[16:1],6h[16:1],5h[16:1],4h[16:1],1h[16:1],2h[16:1],{16}3,5,4,6,
{4}5-2[8:1],5/7-3[8:1],7/1-4[8:1],1/5-8[8:1],
{8}5,2,4,3/5,5,5/7,7,7/1,
6/1h[8:3],6,6,6,3/7h[8:3],3,3,3,
6/2h[8:3],5,4,3,2/7h[8:3],3,4,5,
{16}4,5,4,5,4,5,4,5,3,4,2,6,5,7,2,3,
{24}1b,2,3,4,5,6,7,8,1,2,3,4,5/8b,7,6,5,4,3,2,1,8,7,6,5,
{12}4-8<2b[8:13],{2},{12},{1},{3},{8}5<4[8:13],
{4},{8}B6,B7,{4},{8}Ch[8:9],
{1},{8}5V71V35[8:13],
{4},{8}5xh[16:1],{4},{8},8xh[16:1],
{4},{8},6xh[16:1],{2},{8}2-6[4:3],
{4},{8}4xh[16:1],3xh,{4},{8}2,
{4}1h[8:1],{8}8,1,{16}7,2,6,3,5,4,5,4,
{4}5-8-6[8:5],2h[8:1],2h[8:1],2h[8:1],
4-1>3[8:5],6h[8:1],6h[8:1],6h[8:1],
7<5-1[8:5],4h[8:1],4h[8:1],4h[8:1],
3,5/2,{8}4/7,{24}5,6,5,{8}6,5,
6-2[8:1],6,6/1-4[8:1],1,1/5-8[8:1],5,5/2-6[8:1],2,
2/7-3[8:1],7,7/4-1[8:1],4,4/8-5[8:1],8,{4}8,
{16}4,5,4,5,3,6,3,6,2,7,2,7,1,8,1,8,
1,8,1,8,1,8,1,8,{24}1,2,3,4,5,6,7,8,1,2,3,4,
{1}5<4-8[8:5],
{16}1,8,1,8,1,7,2,6,3,5,4,5,4,5,4,5,
4,3,2,1,8,7,6,5,{24}4/8,7,6,5,4,3,2,1,8,7,6,5,
1,2,3,8,7,6,2,3,4,7,6,5,3,4,5,6,7,8,{4}1-5b[8:1],
1b,{8}7V53[8:1],3v6[8:1],{4}7/1xh[8:1],{8}2V48b[4:1],7-5[8:1],
2,7,,6/2,{4}3-7[8:1]/7-3[8:1],3/7,
5p1[8:1]/1p5[8:1],5V31[8:1]/1V75[8:1],,{8}4x/8x,{16}2,4,
3,5,4,6,{8}5,5h[16:1]/4h[16:1],5,5h[16:1]/6h[16:1],{4}4h[16:3]/7-3[8:1],
7,{8}2V46[8:1],6v3[8:1],{4}2/8xh[8:1],{8}7V51b[4:1],2-4[8:1],
7,2,,3/7,{4}6-2[8:1]/2-6[8:1],6/2,
{8}1/5,2/6,,{16}2/6,3/7,{8}4/8,4/8,,{16}4/8,7/3,
{8}6-4[8:1]/2-4[8:1],2/6,{4}6bx/2bx,5xh[8:1]/3xh[8:1],{8}5/1-5[8:1],7/3,
{4}1,{8}7V53[8:1],3v6[8:1],{4}7/1xh[8:1],{8}2V48b[4:1],7-5[8:1],
2,7,,6/2,{4}3-7[8:1]/7-3[8:1],3/7,
5p1[8:1]/1p5[8:1],5V31[8:1]/1V75[8:1],,4x/8x,
{24}4/8h[16:3],3,2,1,{12},{24}7/1h[16:3],6,5,4,{12},{8}2,5h[16:1]/6h[16:1],{4}4h[16:3]/7-3[8:1],
7,{8}4V28[8:1],8v3[8:1],{4}4/6xh[8:1],{8}7V15b[4:1],4-2[8:1],
7,4,,7/4,{4}5/2-4-6[8:1],6/2b,
{16}7,8,7,8,{8}7,6h[8:1]/2h[8:1],,{24}1/7h[8:1],2,3,{8}4,{24}7/1h[8:1],6,5,
{4}4b-7[8:1]*-1[8:1],4b,{16}8b,{8},{16}2b/6b,{8},5b,
{16}3-8[8:1],4,3,4,{4}3,{16}4,2,5,3,6,4,6,4,
6b<1[8:1],3,5,4bh[16:3],{4}6,{8}2-5[8:1],1-6[8:1],2w6[8:1],1,
2<7[0.4688##0.3125]*>5b[0.4688##0.3125],{4},{8}2bx,{4},{8},{16}5,4,
{8}5,7/3,8-4[8:1]/1-5[8:1],8/1,{4}8x<5[8:1]/1x>4[8:1],1x/8x,
{16}6-1[8:1],5,6,5,{4}6,{16}5,7,4,6,3,5,3,5,
3b>8[8:1],6,4,5bh[16:3],{4}3,{8}7,8,7<4[8:1],5,
{24}7x/3,2,1,8,{12},{4}3,{16}5b/1b,{8},{16}3b/7b,{8},{16}5,4,
{8}5-8[8:1],4-1[8:1],5,4,5,8/4,{4}6/2,
{8}5xs1[8:1]/4xs8[8:1],{16}5,4,{4}5,{16}1bx>3[16:3],{8},{16}3bx-7b[16:3],{8},7bx<5[8:1],
{2}5bx,{16}8b-6[16:3],{8},{16}6b-2b[16:3],{8},2b-4[8:1],
{2}4b,{16}4,5,3,6,2,7,1,8,
{24}7,6,5,4,3,2,{4}5xh[4:1]/1<6b[8:1],{24}1b,4,3,2,1,{6},{24}3/6,{12},{8}2/7,
2/7,2/7,1/8,8/1,1/8,1/8,{16}7,2,
{8}7,8/1,{24}A8/A1,E8/E2,B7/B2,B6/B3,{12}E6/E4,{8}4x/5x,3/6,3/6,5/4,
{16}5,4,5,4,5,3,6,3,6,2,7,2,7,2,7,2,
{24}7,6,5,1,2,3,8,7,6,2,3,4,8,7,6,5,4,3,{32}2,1,8,7,6,5,4,3,
{1}2<8-5>3v2[4:11],
