&title=Xeno Phatasm
&artist=xi (Diverse System)
&first=1.06
&des=UnXnown
&lv_4=13
&lv_5=14+
&lv_6=X
&inote_4=
&inote_5=(212)
{1},,
{4}75,6,5,4h[2:1],,5,3,4,
{4}25,3,4,5h[2:1],,4,6,5,
{4}74,5,6,6h[2:1]/4,,5,7,8,
{4}16,2,8,7,{6}5,4,3,{4}5,46,
{4}2bqq7[8:14]/7b,3,4,4,5,6,6,5<4[8:10],,3,4,5,6h[4:1],,45,,
{4}24,3,2,1,82,1,8,7,
(101)
{2}6h[8:11]/5,{32},{64}2,3,4h[32:26],,,,{8},,,,,,,
(212)
{4},{16}3,5,3,5,2,6,2,6,1,7,1,7,
{4}8b-3[8:1],6-4[8:1],4-8[8:1],2-5[8:1],5-1[8:1],7-4[8:1],3,1h[8:1]/2h[8:1],3h[8:1]/8h[8:1],4^1[4:1]/7,{8}8,7,6,5,
{4}4-7[8:1],1-5[8:1],5-2[8:1],7-3[8:1],3-6[8:1],2-5[8:1],8,{16}7,8,7,,{8}6,5,4/6h[4:1],,
{16}4,5,{8}3,5,2,{4}6b/1b-5[8:1],5-3[8:1],{8}8,8,{4}7b-4[8:1],4-8[8:1],{8}3,3,
{16}2b,,7,8,7,,1,,6,5,6,,2,,7,8,7,,3,,6,5,6,,
{8}4b,4,6,6,75,75,8b,8,2,2,13,13,
{16}4b,3,2,1,8,7,{24}6,5,4,3,2,1,{32}8,7,6,5,4,3,2,1,8,7,6,5,4,3,2,1,{24}8,7,6,5,4,3,{16}2,1,
{4}8bw4[1:1],,,,,,
{4}65,,5,4qq5[8:15],,,5h[4:1],,6,7h[4:1],,8,7,,1,3qq8[8:15],,,4h[4:1],,5,6h[4:1],,7,6/5-2[2:1],,
{4}8,1-6[2:1],,2,3-8[2:1],,6,7-4[3:1],8,1,5/2-6[4:1],,7,8-4[4:1]/1,,2,
{8}34,2,2,65,7,7,{16}1,8,1,8,1,8,1,8,{4}27,
{8}7b/1b,71,,34,,56,57,,4,3,2,1,
{8}28,28,,46,,53,52,,6,7,8,1,
{8}27,27,,34,,78,26,,{12}4,5,3,{8}4,,
{8}62,62,,78,,64,83,,5,4,3,2,
{8}1b/6b,6,4,4,7,7,{16}1,2,3,4,5,6,7,8,1,2,3,4,
{8}7b,7,5,5,6,6,{16}3,2,1,8,7,6,5,4,3,2,1,8,
{8}6b,6,4,4,25,25,6b,6,8,8,16,16,{4}3b/7b,
{12}2,2,2,8,8,8,{4}1b^4[8:1],1^6[8:1],1-5[8:1],1b,
{12}8,7,6,2,3,4,{16}7,6,5,4,
1,2,3,4,
8,7,6,5,
{24}3b,4b,7,6,3b,4b,
7,6,3b,4b,7,6,
3b,4b,7,6,3b,4b,
(192)
{4}5w1[8:1],,3b/7b,
(212)
{16}1b,2,3,4,5,6,7,8,1,2,3,4,7,8,1,2,3,4,5,6,1,2,3,4,
{16}8b,7,6,5,4,3,2,1,8,7,6,5,2,1,8,7,6,5,4,3,8V24[4:1],7,6,5,
{4}4<3[16:7]/8b,,{16}5,6,7,8,{4}1V75[4:1],,{16}4,3,2,1,
{16}8b,,6,5,6,,2b,,5,4,5,,1b,,4,3,4,,2b,,6,5,6,,
{16}2b,3,4,5,6,7,8,1,7,6,5,4,{16}2h[4:1],,8,7,6,,1h[4:1],,7,6,5,,
{16}1b,2,3,4,5,6,7,8,5,6,7,8,{16}3h[4:1],,4,5,6,,2h[4:1],,5,6,7,,
{16}1b,8,7,6,5,4,1,8,7,6,5,4,2b,1,8,7,6,5,2,1,8,7,6,5,
{8}2b,2,6,6,17,17,{24}2,3,4,5,6,7,{16}8,1,26,37,{4}48,
{16}8b,7,6,5,4,3,2,1,8,7,6,5,1,8,7,6,5,4,3,2,8,7,6,5,
{16}1b,2,3,4,5,6,7,8,1,2,3,4,8,1,2,3,4,5,6,7,1V75[4:1],2,3,4,
{4}5>6[16:7]/1b,,{16}4,3,2,1,{4}8V24[4:1],,{16}5,6,7,8,
{16}1b,,3,4,2,,7b,,4,5,3,,8b,,5,6,4,,7b,,3,4,2,,
{16}5b,6,7,8,1,2,3,4,8,1,2,3,{16}6h[4:1],,2,3,4,,8h[4:1],,1,2,3,,
{16}7b,6,5,4,3,2,1,8,4,3,2,1,{16}5h[4:1],,3,2,1,,6h[4:1],,2,1,8,,
{16}6b,5,4,3,2,1,8,7,6,5,4,3,8,1,2,3,4,5,6,7,8,1,2,3,
{8}6b,6,3,3,82,82,{24}7,6,5,4,3,2,{16}1,8,74,36,
{4}5/2qq5[1:1],6b,,,,,,{8}3h[8:3]/5,,,4h[8:3],,,5h[8:3],,,6h[8:3],,,
{8}7b>5[1:1],,,,,,,,,,,,
{8}7h[8:3]/3,,,5h[8:3],,,4h[8:3],,,2,,,
{16}8b/3,7,6,5,4,3,2,1,5,4,3,2,8,7,6,5,8,1,2,3,8,7,6,5,
{16}1b/4,2,3,4,5,6,7,8,4,5,6,7,1,2,3,4,1,8,7,6,1p5[4:1],2,3,4,
{4}1b/5>6[16:8],,{16}6p2[4:1],5,4,3,{4}2b<5[16:6],,{16}4,3,2,1,
{8}8b/4b,84,15,15,26,26,{32}6b,5,4,3,2,1,8,7,6,5,4,3,2,1,8,7,{4}6b/4,
{16}2b/5b,,3,4,3,,5,,4,,6,,37,,6,5,6,,3,,5,,2,,
{16}1b/6b,,7,8,7,,6b/2b,,7,8,7,,2b/5b,,3,4,3,,26,,3b,4,2,,
{16}4b/5b,,6,5,7,,8b/4b,,3,4,2,,1b/7b,,6,5,7,,2b/8b,,4,5,3,,
{8}7b/3b,37,26,26,17,17,{32}1b,2,3,4,5,6,7,8,1,2,3,4,5,6,7,8,{4}1b/5,
{32}7b,6,5,4,2,,,,,,,,8b,7,6,5,3,,,,,,,,1b/2b,38,4-8[8:1]/7,56,{8},,,7b,,
{32}2b,3,4,5,7,,,,,,,,1b,2,3,4,6,,,,,,,,8b,17,62,5-1[8:1]/3,{8}4,,,2b,,
{24}7b/3b,4,5,6,7,8,1,2,3,4,5,6,7,8,1,2,3,4,
{24}7b,6,5,4,3,2,1,8,7,6,5,4,3,2,1,8,7,6,
{24}2b,3,4,5,6,7,8,1,2,3,4,5,6,7,8,1,2,3,
{32}8b,7,6,5,4,3,2,1,8b,7,6,5,4,3,2,1,8b,7,6,5,4,3,2,1,
(202){32}8b-4[4:7]/2b-6[4:7],3b/7b,4b/6b,5b,{8},,,,,
(192){8},,,,,,
(182){8},,,,,,
(172){8}5,4,6,
(152){8}5,
(132){8}4,3,
(106){4}8b,,,,
&inote_6=(212)
{1},,
{32}E7,B6,,,,,,,{4}3,4,5,,4,5,6,
{32}E2,E3,E4,,,,,,{4}7,6,5,,6,5,4,
{32}E3,B3,,,,,,,{4}4,5,34,,6,7,4,
{32}E8,E7,E6
,,,,,,{4}1,2,4^1[2:1],{6}A8,A7,A6,{4}A5,45,
{4}2b-6b[8:14]/6b,4,5,6,7,7,8,8-4b[8:10],,1,1,2,2h[4:1],,{32}3,4,,,
,,,,{4},
{4}75,6,7,8,17,8,1,2,
(101)
{2}3xh[8:11]/4,{64},,A2,
D2,A1,D1,A8,D8,{8}7xh[4:3],,,,,,,
(212)
{4},{16}5x,4,3,2,4x,3,2,1,3x,2,1,8,
{4}7b/3b,1-5[8:1],1/7-3[8:1],74,2-6[8:1],2/4-8[8:1],14,{8}2,1,{4}38,4h[4:1]/5,
{8}6,7,8,1,
{4}26,5-1[8:1],5/3-7[8:1],38,6-2[8:1],6/8-4[8:1],58,{8}6,5,7,4,{8}83,
{16}2,1,2,,{8},5,6,{4}7-3[8:1],7/8-4[8:1],85,6-2[8:1],6/5-1[8:1],57,
{8}8,1,2,3,48,48,{16}7x,5,6,5,7,,2x,4,3,4,2,,
{8}68,7,68,,{16}7,6,5,4,
{8}31,2,13,,{16}2,3,4,5,
{24}7b,6,5,4,3,2,1,8,7,6,5,4,3,2,1,8,7,6,
{32}2b,3,4,5,6,7,8,1,2,3,4,5,6,7,8,1,2,3,4,5,6,7,8,1,
{32}2bv5[1:1]/6bv1[1:1],37,48,51,,,,,{4},,,,,
{4}45,,5,4>6[1:2],,6,5,,4,3,2,1,C,,4,5<3[8:15],,3,4,,5,6,7,8,Cf/B7/B6/B2/B3,,
{4}1,2^5[2:1],,8,7^2[2:1],6,5,4^7[3:1],3,2,8/1-5[4:1],,6,7-3[4:1]/8,,2,
{8}17,1,1,82,8,8,{16}5,7,4,6,3,5,2,4,{4}1b,
{8}78,7-3[8:1]/8-5[8:1],,78,,4x,12,,B4,,B7,,
{8}21,2-6[8:1]/1-4[8:1],,21,,3x,87,,B5,,B2,,
{8}17,1-5[8:1]/7-3[8:1],,17,,4x/6x,28,,{12}B3,B4,B6,{8}B7,,
{8}18,1-5[8:1]/8-4[8:1],,18,,3x/6x,18,,
{64}A2/A8,{128},,B2,B8,,,C,,,,B4,B6,,,{128}A4,A6,,,{32},,,{8}3x/7x,,
{8}16,6,4,4,7,7,{16}4x,3,2,1,7x,6,5,4,1x,2,3,4,
{8}85,8,3,3,5,5,{16}1x,2,3,4,1x,8,7,6,4x,3,2,1,
{8}87,7,6,6,35,1,34,3,2,2,35,8,{4}27,
{12}45,45,45,45,45,45,{4}3x/6x,
{16}7,2,8,1,7,2,8,1,{4}2x/7x,
{12}1x,2,3,4x,5,6,{16}2x,3,4,5,
6x,7,8,1,
2x,3,4,5,
{24}7x,8,7,8,7,8,
7,8,7,8,7,8,
7,8,7,8,7,8,
(192)
{4}6b/1b,,Cf/B1/B3/B5/B7,
(212)
{8}2-6b[8:1]/1,2,8-4b[8:1],8,3,3,{16}5x,6,7,8,2x,3,4,5,1x,8,7,6,
{8}1-5[8:1],1,7-3[8:1],7,2,2,{16}4x,5,6,7,1x,2,3,4,8x,7,6,5,
{4}24,
{16}3,4,5,6,7-4b[8:1],8,1,2,{4}3x/7x,
{16}2,1,8,7,6-1b[8:1],5,4,3,{4}2x/6x,
{16}4,5,6,7,8-5[8:1],1,2,3,{4}4x/8x-3[8:1],8x-4[8:1],8x,
{8}2-6[8:1],2,5-1[8:1],5,3,3,{16}8x,7,6,5,1x,8,7,6,8x,7,6,5,
{8}3-7b[8:1],3,8-4b[8:1],8,2,2,{16}5x,6,7,8,4x,5,6,7,5x,6,7,8,
{8}2-6[8:1],2,8-4[8:1],8,1,2,3-7[8:1],3,8-4[8:1],8,2,2,
{16}2x,1,8,7,{16}2x/6x,3/5,4,3/5,{16}2x/6x,7,8,1,
{24}3x,4,5,6,7,8,1,2,3,4,5,6,{4}7,
{8}7b-3b[8:1]/8b,7,1-5b[8:1],1,6,6,{16}4x,3,2,1,8/7x,6,5,4,3/8x,1,2,3,
{8}8-4[8:1]/4,8,2-6[8:1],2,7,7,{16}5x,4,3,2,1/8x,7,6,5,4/1x,2,3,4,
{4}75,
{16}6,5,4,3,2-6b[8:1],1,8,7,{4}6x/2x,
{16}7,8,1,2,3-7b[8:1],4,5,6,{4}7x/3x,
{16}5,4,3,2,1^4[8:1],8,7,6,{4}5x/1x^6[8:1],1w5[8:1],1,
{8}7-3[8:1]/3,7,4-8[8:1],4,6,6,{16}1x,2,3,4,5/8x,1,2,3,4/1x,2,3,4,
{8}6-2b[8:1]/5,6,1-5b[8:1],1,7,7,{16}4x,3,2,1,8/5x,4,3,2,1/4x,3,2,1,
{8}7-3[8:1]/8,7,4,4,6,6,2-6[8:1]/5,2,4,4,15,15,37,37,{16}84,7,6,5,43,2,1,8,{8}3h[8:1]/7h[8:1],,
{20}3x/7x,46,5,46,37,{4}2-6[8:1]/8-4[8:1],
{8}2b/8b,A4/A6,,C,,E7,E1,,B5,,B3,,
{8}16,1-5[8:1]/6-2[8:1],,16,,4x,38,,B3/B4,,B8/B7,,
{8}14,1-5[8:1]/4-8[8:1],,14,,7x,63,,B7/B6,,B3/B4,,
{8}81,8-4[8:1]/1-5[8:1],,81,,6x/3x,81,,
{64}A7/A1,{128},,B7,B1,,,C,,,,B5,B3,,,{128}A5,A3,,,{32},,,{8}6x/2x,,
{8}1-5[8:1],1,7-3[8:1],7,4^1[8:1],4,{16}8,7,6,5,4,3,2,1,84,73,62,51,
{8}4-8[8:1],4,2-6[8:1],2,5^8[8:1],5,{16}1,2,3,4,5,6,7,8,15,26,37,48,
{8}5-1[8:1],5,8-4[8:1],8,2,3,7-3[8:1],7,4-8[8:1],4,5,6,1,1,7,7,2,2,
{32}8,7,6,5,4,3,2,1,8,7,6,5,4,3,2,1,{4}8b/Cf,
{16}16,,3,4,2-5b[8:1],,5,,2,,6,,
{16}47,,6,5,7-3b[8:1],,4,,7,,2,,
{16}15,,3,4,2-7[8:1],,5,,2,,6,,
{16}84,,6,5,6-1[8:1],,4,,6,,2,,
{16}35,,2,1,3-8b[8:1],,8,,3,,7,,
{16}61,,7,8,6-1b[8:1],,1,,6,,2,,
{16}4,8,4,8,3,7,3,7,2,6,2,6,
{32}1,2,3,4,5,6,7,8,1,2,3,4,5,6,7,8,{4}1b/Cf,
{32}2b/6b,35,4,53,
2b/6b,,,,
,,,,
7b/3b,64,5,46,
3b/7b,,,,
,,,,{20}A8,B8,C,B4,A4,A2,B2,C,B6,A6,{4}8b,
{48}2b/8b,3x/7x,4x/6x,5x,4x/6x,3x/7x,
2b/8b,,,,,,
,,,,,,
7b/1b,2x/6x,3x/5x,4x,3x/5x,2x/6x,
1b/7b,,,,,,
,,,,,,{20}A1,B1,C,B5,A5,A7,B7,C,B3,A3,{4}1b,
{24}1b/4x,25,36,47,58,6,7,8,1,2,3,4,{16}6b,5,6,5,
{24}7b/4x,63,52,41,38,2,1,8,7,6,5,4,{16}2b,3,2,3,
{32}1b,2,3,4,5x,6,7,8,1b,2,3,4,5x,6,7,8,1b,2,3,4,5x,6,7,8,
{32}1b,28,37,46,5x,46,37,28,1b,28,37,46,5x,46,37,2-6[8:1]/8-4[8:1],1b,,,,,,,,
(202){8}Cf/B2/B8/B4/B6/A2/A8/A4/A6,,,,,,
(192){8}A6,E6,B5,B3,E3,A2,
(182){8}A7,E7,B6,B4,E4,A3,
(172){8}7,6,5,
(152){8}4,
(132){8}3,2,
(106){64}1x-5[8:13],8x,7x-3[8:13],,,,,,{4},,,{1},
