&title=Doll's Garden
&artist=Memme
&first=0.019
&des=Aleurites Moluccanus
&lv_6=13+
&des_6=
&inote_6=(160)
{1},
{8}4^1[4:1],5,6h[4:1],,,,7^4[4:1],1,2h[4:1],,,,
{8}3h[8:1],5h[8:1],4h[8:1],6h[8:1],8h[8:1],7h[8:1],1h[4:1],
{16},,7,6,5,4,1,2,3,4,
{8}7^2[4:1],5,4h[4:1],,,,3^8[4:1],5,6h[4:1],,,,5,4,3h[8:1],
{16}4,3,5h[8:1],,4,,6<3[4:1],,5,,4h[4:1],,,,,,,,
{8}4q1[4:1],5,6h[4:1],,,,8q5[4:1],1,2h[4:1],,,,
{8}7h[8:1],5h[8:1],8h[8:1],1h[8:1],4h[8:1],2h[8:1],3h[4:1],,
{16}8,1,2,3,5,6,7,8,2h[8:1],,3h[8:1],,1h[8:1],,
{16}4,5,6,7,1,2,3h[8:1],,7h[8:1],,5h[8:1],,8h[8:1],,1,,2,,
{16}3,4,3,4,2,5,2,5,1,6,1,6,8,1,2,3,7,6,5,4,1,2,3,4,
{16}7b^2[8:1],,,,7/3,,4,,6,5,6,,1V75[4:1],,7-3[8:1],,1,,,,,,,,
{16}2b^7[8:1],,,,2/6,,5,,3,4,3,,8V24[4:1],,2-6[8:1],,8,,,,,,,,
{16}7b^2[8:1],,,,7/3,,4,,6,5,6,,1V73[4:1],,7-4[8:1],,1,,,,,,,,
{16}2,1,2,8,3,7,4,6,5,6,5,7,4,3,2,1,8/4,5,6,7,8-4[8:1]/4,,,,
{16}8b^3[8:1],,,,8/4,,5,,6,5,6,,1V73[4:1],,7,,1,,,,4-8[8:1],,,,
{16}4b^1[8:1],,,,4/8,,7,,6,5,6,,3V51[4:1],,5,,3,,,,8-4[8:1],,,,
{16}8b^3[8:1],,,,8/4,,5,,6,5,6,,4V25[4:1],,5,,6,,,,7,,,,
{16}6,5,6,4,7,3,8,2,1,2,1,3,8,7,6,5,4/8,1,2,3,4z8[8:1]/8,,,,
{4}4>5[2:5],,,4h[128:1],,,3h[128:1],,,2h[128:1],,,
{4}2-6[4:1],2h[4:1],,7-4[4:1],7h[4:1],,3-8[4:1],3h[4:1],,1>8[2:1],1h[4:1],,
{4}2qq5[2:1],3h[4:1],,4qq8[2:1],5h[4:1],,6qq2[2:1],7h[4:1],,8qq4[2:1],1h[4:1],,
{8}2-5[8:1]*-4[8:1],,2b,,6,5,7-5[8:1]*-4[8:1],,7b,,34,25,6/1-5[8:1],,
{16}1b,,6,6,5,,74,,3,2,1,8,4,5,6,7,1/8,2,3,4,
{16}7p2[4:1],,5,,4h[4:1],,,,,,,,3p6[4:1],,8,,7h[4:1],,,,,,7,5,6,,4,,3h[8:1],,
{16}4,3,5,,4,,6h[4:1],,,,8,1,2,3,4/5,6,7,8,
{8}1/2q7[4:1],3,4h[8:1],,
{16}3,2,1,8,
{8}6h[4:1]/7,5,4h[8:1],
{16}8,7,6,5,43,,2,1,2,1,3,8,3,8,4,7,4,7,5,4,3,2,1/5,6,7,8,1/2,3,4,5,
{16}
6/7p2[4:1],,5,,4h[4:1],,,,,,,,3p6[4:1],,8,,7h[4:1],,,,,,7,5,6,,4,,3h[8:1],,
{16}4,3,5,,4,,6h[4:1],,,,8,1,2,3,4/5,6,7,8,
{8}1/2,3,4h[4:1],
{16}2,1,8,7,6,5,43,,2,,18,,7,,65,,,,
{16}3,4,3,5,2,6,1,7,8,7,8,6,1,2,3,4,5/1,8,7,6,5/1-4[8:1]*-6[8:1],,,,
{16}1b,,,,5/7,,6,,3,4,2,,5,6,7,8,1/5,2,3,4,5/1,6,7,8,
{16}1b/5,,,,4/2,,3,,6,5,7,,4,3,2,1,8/4,7,6,5,4/8,3,2,1,
{16}8b/4,,,,5/7,,6,,3,4,2,,5,6,7,8,1/5,2,3,4,5/1,6,7,8,
{16}1b/5,,3,,8,2,6,5,7,4,8,3,1,8,7,6,54,3,2,1,87,6,5,4,
{16}1b,,8,,5/7,,6,,3,4,2,,5,6,7,8,1p4[4:1]/5,2,3,4,5/1,6,7,8,
{16}1b,,2,,4/2,,3,,6,5,7,,4,3,2,1,8q5[4:1]/4,7,6,5,4/8,3,2,1,
{16}8b,,7,,6h[8:1],,5,4,3,2,1,,7b/8b,,6,,5/4,,3h[8:1],,4,5,6,7,
{16}1,8,2,7,3,6,4,5,3,4,2,5,
{24}1,2,3,7,6,5,2,3,4,8,7,6,
{32}1,2,3,4,5,6,7,8,1bs5[1:2]/5b,
