&title=Hailstone
&artist=Kazki Misora
&first=0
&lv_4=12
&des_4=简心单视
&inote_4=
(180){4},,,,,,,,C,
6h[4:1],{8},6h[4:1],{4},{8}8h[4:1],
{4},{8}7h[4:1],{4},1h[4:1],
,3h[4:1],{8},3h[4:1],{4},{8}1h[4:1],
{4},{8}2h[4:1],{4},8h[4:1],
,7h[4:1],{8},2h[4:1],{4},{8}8h[4:1],
{4},{8}1h[4:1],{4},5h[4:1],
,4h[4:1],{8},6h[4:1],{4},2h[4:1],
{8}1,8h[4:1],,1,2,3,
4x/5x,{4},{8}6x/5x,{4},3x/4x,
{8},1x/2x,{4},{2}7x-3[8:1]/8x-4[8:1],
{4},{8}5/6h[2:3],5,,3,{4}3,
{8}8,8,,2,{4}2,3b,
{8}5x/4x,{4},{8}2x/3x,{4},8x/1x,
{8},7x/6x,{4},{2}5x-1[8:1]/4x-8[8:1],
{8}2,2,7,7,3,3,6,6,
4,4,5,5,{16}4,5,4,5,{4}4h[4:1],
C,{8}1/2,8,3,3,4,4,
{16}6,5,{8}6,2,7,1,8,{4}8-6-4[4:1],
{2}Ch[4:1],{8}7x/1x,8,2,3,
4,5,{4}4,{16}5/3,{8},{16}5/3,{8},6/4,
{4}6/4,C,{8}7/1,2,5/3,6,
{16}4,5,{8}4,3,3,2,2,{4}1-5[8:1],
,7h[4:1],{8},5h[4:1],{4},{8}6h[4:1],
{4},{8}4h[4:1],{4},5h[4:1],
{2}3-8[8:1],{8}7,7,6,6,
4,5,3,4,{4}2h[4:1],8q4[4:1]*p4[4:1],
{2}8x,{8}5/6,7,3/4,2,
5,6,{4}7,{16}8/2,{8},{16}8/2,{8},7/1,
{2}1/7,{8}4h[4:1]/3h[4:1],{4},{8}4h[4:1]/2h[4:1],
{4},6h[4:1]/5h[4:1],{8},5h[4:1]/7h[4:1],{4},C,
3h[4:1],{8},1h[4:1],{4},{8}2h[4:1],
{4},{8}8h[4:1],{4},1h[#0.3333321],
(100){8}8,8,7,7,6,6,5,5,
(110)4,4,3,3,2,2,1,1,
(120)8,8,7,7,6,6,5,5,
(130)4,4,3,3,2,2,1,1,
(140)6,5,7,4,8,3,1,2,
(150)4,3,5,2,6,1,7,8,
(160)6,5,8,1,5,4,1,2,
(170)4,3,2,1,{16}8,7,6,5,{4}4b,
(180){8}2h[4:1]/5h[4:1],{4},{8}7h[4:1]/4h[4:1],{4},8h[4:1]/3h[4:1],
{8},1h[4:1]/6h[4:1],{4},{2}7h[4:1]/8-4[8:1],
{8}2h[4:1]/5h[4:1],{4},{8}6h[4:1]/3h[4:1],{4},7h[4:1]/4h[4:1],
{8},3h[4:1]/8h[4:1],{4},{2}2h[4:1]/1-5[8:1],
{4}3/4,{8}2,1/2,,7,{4}8/7,
{8}6,6/4,,2,{4}2/5,{8}3,3/4,
{16}2h[16:3],{8},{16}5h[16:3],{8},3h[16:3],{16},7h[16:3],{8},{4}5h[16:3],
{8}8/4,8/4,7/3,3/7,6/2,2/6,{16}5bx-7-1-5b[2:3],1x-3-5-1[16:23],5x,1x,
{1},,{8}6,
6h[4:1],,2,{4}2h[4:1],{8}7,7h[4:1],
,1,{4}1h[4:1],{8}8,8,7,6,
5,4,5,3,4,3,6,5,
6,7,8,1,2,2,7,7,
3,3,3,3,6,6,6,6,
{16}4,5,4,5,4,5,4,5,3,6,3,6,{4}Cf,
{8}2,2-5[8:1],,8,{4}8-4[8:1],{8}3,3-8[8:1],
,6,{4}6,{8}7,7,8,8,
1,1-6[8:1],,7,{4}7-4[8:1],{8}3,3-7[8:1],
,5,{4}5,{8}4,4,3,3,
2,2-5[8:1],,1,{4}1-6[8:1],{8}3,3-8[8:1],
,4,{4}4-7[8:1],{8}2,2,1,1,
8,8-3[8:1],,7,{4}7-4[8:1],{8}3,3,
2,1,8,7,{16}6,4,6,4,{4}C,
{8}3b,3-5[8:1],,7,{4}7-3[8:1],{8}1,1-7[8:1],
,5,{4}5-1[8:1],{8}2,2,8/3,8/3,
4,4-6[8:1],,8,{4}8-4[8:1],{8}2,2-8[8:1],
,6,{4}6-2[8:1],{8}3,3,1/4,8/5,
{4}7b/6b,6/5,4/3,6/5,
{8}2/4,2,7/5,7,1/8,1,5/4,5,
{16}2b,1,2,1,2,1,{8}2,{16}7,8,7,8,7,8,{8}7,
{16}5b,6,7,8,1,2,3,4,5,6,7,8,{4}1h[4:1],
C,6/5,{8}4,4,7,7,
{16}6,5,{8}6,4,4,3/5h[4:1],3,{4}2V46[4:1],
{2}Ch[4:1],{8}7x/8x,6,5,5,
3,4,{4}2,{16}7/5,{8},{16}4/6,{8},5/3,
{4}4/2,C,{8}2/8,1,3/5,4,
{16}6,5,{8}6,7,7,8,8,{4}1-5[8:1],
,7h[4:1],{8},3h[4:1],{4},{8}8h[4:1],
{4},{8}4h[4:1],{4},5p1[4:1]*q1[4:1],
{2}5x,{8}7/3,{16}6,5,{8}6,{16}3,4,
{8}3,5,6/3,4,6/3,5,{4}7-3[8:1]/2-6[8:1],
,5x/4x,{8}2/5,1,7/4,8,
3,2,{4}1,{16}6/8,{8},{16}7/1,{8},8/2,
{2}1/3,{8}7h[4:1]/8h[4:1],{4},{8}6h[4:1]/8h[4:1],
{4},1h[4:1]/2h[4:1],{8},1h[4:1]/3h[4:1],{4},C,
6h[4:1],{8},4h[4:1],{4},{8}8h[4:1],
{4},{8}2h[4:1],{4},1w5[4:1],
E
&lv_5=14+
&des_5=简心单视
&inote_5=
(180){4},,,,,,,,A5/D5/A4,
{8}3h[4:1],5,5,6h[4:1],4,4,
2h[4:1],5,5,7h[4:1],4,4,{4}3h[4:1],
,{8}6h[4:1],4,4,3h[4:1],5,5,
7h[4:1],4,4,2h[4:1],5,5,6h[8:1],8h[8:1],
7h[8:1],1h[8:1],7h[4:1],1,1,2h[4:1],8,8,
6h[4:1],1,1,3h[4:1],8,8,{4}7h[4:1],
,{8}2h[4:1],8,8,7h[4:1],1,1,
3,8/3,8/3,{16}2,1,2,1,{8}2,{16}2,3,4,5,
{4}6b/7h[4:1],{8}8,3b/2h[4:1],,1,{4}5b/7h[4:1],
{8}8,4b/2h[4:1],,1,2,{16}3,6,4,5,3,6,
{4},{8}6/5,{16}7,4,{8}7,6/5,{16}4,7,{8}4,
2/1,{16}3,8,{8}3,2/1,{16}8,3,{8}8,{16}1/2,8,7,6,
{4}5b/4h[4:1],{8}7,3b/6h[4:1],,1,{4}7b/2h[4:1],
{8}8,1b/8h[4:1],,3,{2}5h[4:1]/4h[4:1],
{16}5b,3,5,3,6,4,6,4,8,2,7,1,5,3,6,4,
5b,6,7,8,1,2,3,4,5,6/4,3/7,8/2,{4}1-6[8:1]*-4[8:1],
B1/B8/B2,{8}5-7[8:1],3-5[8:1],5-1-3[16:3],3,8,8,
{16}7,8,{8}7,1x/6,{16}7z3[4:1],6,{8}5,3>4[8:3],4,5,
{2}Ch[4:1],{8}1-4[8:1],4-7[8:1],1-6-3[4:1],8,
1-4[8:1],2,1,{16}5,6,7xh[8:1]/3xh[8:1],{8},{16}1xh[8:1]/B5,{8},6xh[8:1]/B2,
{2}Ch[4:1],{8}4/5-1[8:1],6,5/7<5[8:1],8,
{16}2,3,{8}4h[8:1],7x,{16}5,6,{8}5>2[8:1],5,6,6,
{4}5h[4:1],{8}3h[4:1],5,5,7h[4:1],3,3,
1h[4:1],7,7,5h[4:1],1,1,{4}3h[4:1],
,{16}7/3V51[4:1],6,5,4,{8}3x/1V73[4:1],2,2,2h[8:1],
,{16}1,4,2-4-6[4:1],3,1,4,{4}2x,{8}7>6[16:5],7,
{2}3h[4:1],{8}2x/1x-6-4[16:3],4/3,1,{16}3,3,
{8}3h[4:1],{4},{16}6,7,8h[8:1]/B4,{8},{16}2h[8:1]/B6,{8},5h[8:1]/B1,
{4}Ch[4:1],{8}6,6,{48}7x/8x,6x,5x,4xh[16:3],{24},,,,,,,{48}1x/2x,3x,4x,5xh[16:3],{24},,,,,,,{48}7x/8x,
6x/1x,2x/5x,4x/3xh[16:3],{24},,,,,,,{48}2x/1x,3x/8x,7x/4x,5x/6xh[16:5],{24},,,,,,,{4}4h[4:1],
{8}6h[4:1],4,4,2h[4:1],6,6,
8h[4:1],2,2,4h[4:1],8,8,{4}6h[#0.3333321],
(100){8}3s7s3[8:5],3,4,4,5,5,6,6,
(110)7s3s7[8:5],7,8,8,1,1,2,2,
(120)3z7z3[8:5],3,4,4,5,5,6,6,
(130){16}7z3z7[8:5],7,{8}7,8,8,1,1,{16}2,2,2,2,
(140)6,3,6,3,6,4,6,4,6,5,6,5,6,8,1,2,
(150)3,4,3,4,3,5,3,5,3,6,3,6,3,4,5,6,
(160)7,7,8,8,1,1,2,2,3,3,4,4,5,5,6,6,
(170)7,8,1,2,7,6,5,4,1,2,3,4,8,7,6,5,
(180){8}4x/3x,{16}5,4,{8}5,6x/5x,{16}4,5,{8}4,1x/2x,{16}3,4,
{8}3,8x/7x,{16}6,5,{8}6,{16}8x/7x<4[8:1],1,2,3,{4},{8}3x/5x,
{16}2,7,{8}2,6x/4x,{16}7,2,{8}7,2x/8x,{16}3,6,
{8}3,7x/1x,{16}6,3,{8}6,{16}8x/2x,3,{8}4,{16}7,7,7,7,
{8}7bx,{16}1,5,{8}1,7x/3x,{16}5,1,{8}5,6x/2x,{16}4,8,
{8}4,2x/6x,{16}8,4,{8}8,{16}7x/3x,4,5,6,7,8,1,2,
3b,8,,6b,{8}1,{16}4b,2,,7b,{8}5,{16}3b,4,,2,
7b,5,6,2,4,3,6b,8,7,3,1,2,{24}8,1,8,1,8,1,
{48}8bxs4z8[2:3],7/2,6/3,5/4,{1},{4},,,{6},{8}4,
5,E4,8,1,E6,3,4,
E2,6,5,E8,2,2,1,2,
8,8,8h[8:3],1,1,1h[8:3],7,7,
7h[8:3],2,2,2h[4:1],6,6,3,3,
{16}6,5,6,5,7,4,7,4,6,3,6,3,5,2,5,2,
7,3,6,5,8,2,1,4,8-4[8:1],3,6,2,{4}8b,
{8}3qq1[8:1],4,5,6qq4[8:1],7,8,1qq7[8:1],2,
3,4qq2[8:1],5,6,7<4[8:1],8,1,2,
6pp8[8:1],5,4,3pp5[8:1],2,1,8pp2[8:1],7,
6,5pp7[8:1],4,3,2>5[8:1],1,8,7,
6pp7[16:3],5,4,3pp4[16:3],2,1,8pp1[16:3],7,
6,5pp6[16:3],4,3,2p3[16:3],1,8,7,
6v8[8:1],5,4,3v5[8:1],2,1,8v2[8:1],7,
6,5,4,3,{16}1-5[8:1],8,2,7,{4}C,
{8}4b/6-1[8:1],3,6/2,3,8/4-1[8:1],7,6/4,5,
2/4-6-8[16:3],5,4/2,3,4-2-8[16:3],5/3,4x/6x,7,
6v1[8:1],5,4/6,3,2-4[8:1],1,2/8,7,
6/5-3-1[16:3],4,5/7,6,5-7-1[16:3],6/4,5x/3,2,
3bx/5,3,4/6,4,5/7,5,6/8,6,
7bx/1,7,8/2,8,1-6[8:1]/3-6[8:1],2,{4}1/3,
{16}7b,5,8,2,4,3,7,1,6,8,4,2,5,3,7,1,
4b,5,6,7,8,1,2,3,4,5/3,2/6,7/1,{4}8-5[8:1]*-3[8:1],
E8/B8/E1,{8}4-2[8:1],8-6[8:1],4-8[8:1],8-2[16:1],4,5,
{16}6-1[8:1],3,{8}7,6x/4,{16}2s6[4:1],3,{8}4,6<4[8:3],5,4,
{2}Ch[4:1],{8}8-5[8:1],5-2[8:1],8-3-6[4:1],1,
8-5[8:1],7,8,{16}4,3,2xh[8:1]/6xh[8:1],{8},{16}8xh[8:1]/B4,{8},3xh[8:1]/B7,
{2}Ch[4:1],{8}7/5-1[8:1],4,5/3<5[8:1],2,
{16}8,7,{8}6h[8:1],2h[8:1],{16}4,3,{8}4<7[8:1],4,3,3,
{4}4h[4:1],{8}7h[4:1],5,5,3h[4:1],5,5,
6h[4:1],8,8,2h[4:1],8,8,{4}1-5[8:1],
1h[4:1],{16}4,3,2,1,{8}4x/8,{16}3,4,{8}2x,{16}6,5,
8x-2[8:1],4,{8}7h[8:1],8b-4[8:1],{16}6,5,{8}8b,7,{4}Ch[4:1]/2<3[16:5],
,E7,{8}2/1,{16}3,5,{8}8-4[8:1],{16}6,1,
{8}8,2,3x/5,{16}5,6,7h[8:1]/E4,{8},{16}2h[8:1]/E6,{8},8h[8:1]/E5,
{4}Ch[4:1],{8}3,3,{48}2x/1x,3x,4x,5xh[16:3],{24},,,,,,,{48}8x/7x,6x,5x,4xh[16:3],{24},,,,,,,{48}2x/1x,
3x/8x,7x/4x,5x/6xh[16:3],{24},,,,,,,{48}7x/8x,6x/1x,2x/5x,4x/3xh[16:5],{24},,,,,,,{4}5h[4:1],
{8}2h[4:1],4,4,6h[4:1],4,4,
3h[4:1],1,1,7h[4:1],1,1,{4}8w4[8:1],
{1}8b,
E
