&title=オオカミ少年独白
&artist=sasakure.UK feat. Cana
&first=0.043
&des=谎言
&lv_5=13
&inote_5=(102){4},,,,4h[4:1],
5,{2}3/4<8[4:1],
{4}5h[4:1],6,{2}7/5V31[4:1],
{4}4h[4:1],2,{2}1/4V61[4:1],
{4}4h[2:1],3,{2}5p4[8:3],
{4}2h[4:1],4h[4:1],5qq4[16:3],7,
8>4[24:5],5pp1[2:1]*qq4[4:1],,,,5h[4:1]/6-8[8:1],
,3h[4:1]/6>4[8:1],
,E1,{16}C,,,3x,{8}E5,5x,
3x/4xh[8:1],E2,{4}3h[8:1]/4h[8:1],2h[8:1]/4h[8:1],2h[8:1]/4h[8:1],
5h[8:1]/4h[8:1],5h[8:1]/4h[8:1],5h[8:1]/3h[8:1],5h[8:1]/3h[8:1],
{8}6x/5xh[8:1],E8,{4}6h[8:1]/5h[8:1],7h[8:1]/5h[8:1],7h[8:1]/5h[8:1],
4h[8:1]/5h[8:1],4h[8:1]/5h[8:1],{8}6/4h[4:1],{32}E8,E7,E6,E5,{48}D4,D3,D2,D1,D8,D7,{8}D6,
2xh[8:1],4h[8:1],3h[8:1],5h[8:1],1h[8:1],3h[8:1],2h[8:1],4h[8:1],
3xh[8:1],5h[8:1],4h[8:1],8h[8:1],5h[8:1],7h[8:1],4h[8:1],6h[8:1],
2xh[8:1],4h[8:1],3h[8:1],5h[8:1],1h[8:1],3h[8:1],2h[8:1],4h[8:1],
{4}C,C,C,C,
{8}5,5/6,4,3/4,5,5/6,4,4/3,
5,6/5,4,{24}3,,3,{2}4v5[8:1]*-2[8:1],
{4}1pp1[8:3],5v8[8:1],,2/6,
4pp5[4:1],5>2[4:1],{8}8,7h[8:1],,,4,
4/3,5,6/5,4,4/3,5,5/6,
4,3/4,5,{24}6,,6,{12}5v4[8:1],7-5[8:1],,,,,{4}3>5[8:3],
7V51[4:1],,,6<4[8:3],
1q5[8:1],,6/7,
{8}2-5[8:1],6h[8:1],2,7h[8:1],4-1[8:1],8h[8:1],4,6h[8:1],
8-4[8:1],5h[8:1],8,7h[8:1],{12}5<8[6:1],7<4[12:1],,,,,{4}3p6[4:1],
6<3[4:1],4,5,
6>3[4:1],3>6[3:1]*p6[3:1],{8},,,,3/7-4[8:1],
6h[8:1],7,5h[8:1],1-5[8:1],2h[8:1],1,4h[8:1],
8<2[8:3],1>7[4:1],{24},,,,,,,,,,,,{12}2-6[8:1],{24}2,1,,,{4}5,
{12}7-4[8:1],{24}7,8,,,{2}5w1[8:1],
{12}3b>8[8:1],{24}3,4,,,{8}7/3,{24}6,,5,{8}5h[8:1],4,3/5,1,
{12}2<7[8:1],{24}3,4,,,{8}6/2,{24}5,,4,{8}4h[8:1],3,2/4,8,
{12}1<6[8:1],{24}3,4,,,{8}5/1,{24}4,,3,{8}3h[8:1],2,4/3,5/4,
5/6-8[8:1],8-4[8:1],4-2[8:1],1h[4:1],,,8,7/1,
{12}6,{24}6,5,,5,{12}7,{24}7,1-3[8:1],,1,{2}3-5[8:1]*-7[8:1],
{12}6,{24}6,5,,5,{12}7,{24}7,2V46[4:1],,2,{2}4-8[8:1],
{8}1-5[8:1],2/8-6[8:1],1,8,4-2[8:1],3/5-1[8:1],4,5,
3-6[8:1],6-3b[8:1],,,,,{4}5<3[4:1],
{8}3b>5[4:1],4,5<3[4:1],4,3>5[4:1],4,{4}5qq4[24:7]*<3[24:7],
{8},,,5/6h[4:1],7,1,{12}3>8[8:1],{24}3h[24:7],4,,,,,,,,,{8}1,
{24}6,,6,{8}5<8[8:1],7/5h[4:1],,,3,
4,5/3qq6[4:1],2/8,,,{4}8<2[4:1],
{8}2b>8[4:1],1,8<2[4:1],1,2>8[4:1],1,{4}8p1[24:7]*<2[24:7],
{8},,,8/6h[4:1],4,2,1/8,{24}6,,6,
{4}5qq8[4:1],1,{12}6,{24}6,1h[4:1],,,{8}3,8,
6-2[8:1],3,6,4,1>8[4:1],{24}3,,3,{4}1,
{8}E5/A5/D5f/A4,2h[8:1],4h[8:1],6h[8:1],{12}8<5[8:1],{24}8,1-4[8:1],,,{8}8,1,
8,1/3h[8:1],5h[8:1],7h[8:1],{12}1<6[8:1],{24}1,2-5[8:1],,,{8}1,2,
1,3/4h[8:1],6h[8:1],8h[8:1],{12}2<7[8:1],{24}2,3-6[8:1],,,{8}2,3,
1,{24}5/4,,7,{12}8,{24}6,4,,8,{8}1q5[8:1],5-1[8:1],{4}1,
{8}8b>3[8:1],7,6,7,{12}8,{24}1,1>7[4:1],,,{8}2,1/3,
8b-5[8:1],1b,2b-7[8:1],3b,{4}4bqq5[8:3]*>6b[8:3],4b,
{8},,3h[8:3],2,8,6,3/4h[4:1],2,
8,6b,4b/5h[8:1],{24}2,4,3,6,5,6,3,5,4,{4}8-3[8:1],
8b/4h[4:1],{8}3h[4:1],2,4h[4:1],1,5h[4:1],8,
6h[4:1],7,5h[4:1],8,4h[4:1],1,3h[4:1],2,
1h[4:1],2,4h[4:1],3,1h[4:1],2,4h[4:1],3,
1-6[8:1],3,5/1,{24}3,,3,{12}4,{24}6,5,,,{8}7/5,5/4,
4/3h[8:1],1,5/3h[8:1],1,4/5h[8:1],8,5/4h[8:1],8,
5/6h[8:1],8,4/6h[8:1],8,5/4h[8:1],1,4/5h[8:1],1,
4/3h[8:1],1,5/3h[8:1],1,4/5h[8:1],8,5/4h[8:1],8,
6/5,4/3,1/2,8/7,{12}6,{24}6,8,,,{12}3-8[12:1],{24}3,1,,,,,,,,,{4}E4,
,E4,
,E4,,E4,
,E4,,E4,
E
