&title=ウィマーマ・サーガ
&artist=しぐれうい(9) vs. しぐれうい (16)
&first=0
&lv_5=13
&des_5=スリラチャ
&inote_5=(150){1},,,
{16}8h[16:3]/1,,,7h[16:3],,,6,,5,,7/4,,6,,,,
{4}5h[8:1]/3h[8:1],5h[8:1]/3h[8:1],7h[8:1]/5h[8:1],7h[8:1]/5h[8:1],
{16}8/1h[16:3],,,2h[16:3],,,3,,4,,2/5,,3,,,,
{8}4h[8:1]/6h[8:1],,8bx,8bx,8bx,,2qq5[1:1],2,
{4}3h[8:1],4h[8:1],5h[8:1],6h[8:1],
{8}7h[8:1],,8h[8:1],,1v2-4[16:5],7-4-8[16:3]b,,,
,,6x,5x,4x,3x,8x-5[4:1]/1xv4qq4[8:5],,
{1},
{16}6h[16:3]/4,,,5,7,,6/5,,4,5,3,,7h[4:1],,,,
{8}2>4[8:1],1,7<5[8:1],8,2>4[8:1],1,A8/B8,,
{16}5/3h[16:3],,,4,2,,3/4,,5,4,6,,2h[4:1],,,,
{8}7<5[8:1],8,2>4[8:1],1,7<5[8:1],8,A1/B1,,
{16}4/2h[16:3],,,3,2,,5-1[8:1]/1,,6,4,5,,3h[4:1],,,,
{8}8-6[8:1],1,2-4[8:1],1,8-6[8:1],1,A2/B2,,
{16}5/7h[16:3],,,6,7,,4-8[8:1]/8,,3,5,4,,6h[4:1],,,,
{1}1b<2[2:1]b,
{16}4/3h[16:3],,,4,3-8[8:1],,3,,,,7,,7,,1,8,
1h[16:3],,,7,8,,7/8,,1,8,2,,7/3,,,,
5/6h[16:3],,,5,6<1[8:1],,6,,,,2,,2,,8,1,
8h[16:3],,,2,1,,2/1,,8,1,7,,6/2,,,,
{8}4,8bx/2bx,8bx/2bx,,7-5[8:1],6,4-1[8:1],3,
8,7,6,5,4/3h[8:3],2bx,1bx,8bx,
,7h[8:1],6h[8:1],5h[8:1],8h[8:1],7h[8:1],6h[8:1],5,
4-8-6[16:3]/3-1-5[16:3],2,4bx/3bx,,,8hx[8:1],{48}E7f,Cf,{24}E3f,,,,,
{8}5-7[8:1]/1-4[8:1],8/4,,,6-1[8:1]/2-4[8:1],7/3,,,
6h[8:5]/5,,2b,1b,8b-5[8:1]b*z4[8:1]b,7b,8b,,
{24}3-6[8:1],,,7>2[8:1],,,3,,,7,,,4,,4,,8,,{4}2h[4:1],
{8}1b-5[8:1]b,3b-7[8:1]b,1b,3b,,{48}E6f,A6/B6,D7/E7,A7/B7,D8/E8,A8/B8,D1/E1,A1/B1,{24}D2/E2,,,,,
{8}5h[16:1]/3h[16:1],4h[16:1]/2h[16:1],5h[16:1]/3h[16:1],8/2,4h[16:1]/6h[16:1],5h[16:1]/7h[16:1],4h[16:1]/6h[16:1],1/7,
{16}3,4,3,4,2,,6,5,,8,1,,4/3h[4:1],,,,
4,3,4,,2,1,2,,5,4,5,,1,8,1,,
7/5,,6/4,,5/3,,4/2,,1,8,1,8,7bx/2bx,,,,
{2}5V71<5[8:5],C,
4V27>4[8:5]b,C,
5V73>5[8:5],E1,
{8}3h[4:1],,4,3,5-1[8:1],,5b,,
{4}3qq6[2:1],7,7,7,
{8}6V84[8:3]b,,2,,2,,2,5h[8:1],
4h[8:1],B7,B2,6h[8:1],5h[8:1],B8,B3,7>7V13V57[8:5]b,
{1}3hx[4:3],
{16}8/1>7[4:1],,,7,7-5-3-1[4:1],,8,,1,,8,,7hb[4:1],,,,
{8}8b-2-4-6[4:1],7,6>8[4:1],7,8,7,6,6,
{16}5<3[4:1]/4,,,3,3-1-7-5[4:1],,4,,5<3[4:1]b,,4,,3,,4,,
{4}5v8[8:1]*v2[8:1],5b,7h[4:1]/1-5[8:1],1,
{8}3h[4:1],1,4h[4:1],6,3h[4:1],1b<6[8:1],1b,,
{16}4h[8:1],,5-1[8:1],4,6,,7/5,,,,8b,,8b,,2,,
{8}7/1>7[4:1],,7<1[4:1]b,8,1>7[4:1],,7<1[4:1]b,8,
1>7[4:1],,7<1[4:1]b,8,1-5[8:1],,7b,,
{16}1/8<2[4:1],,,2,2-4-6-8[4:1],,1,,8,,1,,2hb[4:1],,,,
{8}1b-7-5-3[4:1],2,3<1[4:1],2,1,2,3,3,
{16}4>6[4:1]/5,,,6,6-8-2-4[4:1],,5,,4>6[4:1]b,,5,,6,,5,,
{4}4b-8[8:1],4bw8[8:1],4b,Cf/2bx,
{16}6h[16:3]/4,,,5,7-4[8:1],,8,,3-1[8:1],,2,,5h[4:1],,,,
{8}8-4[8:1],7,8,6-2[8:1],5,6,4,4,
{16}1h[8:1]/3h[8:1],,,5h[8:1]/4h[8:1],,,7-4[8:1]/8-4[8:1],,6/1,,7/8,,,,2h[8:1],,
6,,6,,6,,6,,4,5,3,6,2,7,1,8,
2h[16:3],,,4,3,,5/4,,6-2[8:1],5,7,,6/4,,,,
{8}3h[4:1],B8/B1/E1,5h[4:1],B8/B1/E1,3h[4:1],B8/B1/E1,4,,
{16}7h[16:3]/1,,,5,6,,4/5,,3-7[8:1],4,2,,3/5,,,,
6h[8:1],,5,6,4,7,3,8,2x,1,2,1,4,5,4,5,
1-4[8:1],,,6,1,,7<4[8:1],,3>8[8:1],,7,,3,,,,
{8}7h[8:1],5h[8:1],4h[8:1],2h[8:1],6h[8:1],8h[8:1],1h[8:1],3,
{16}5h[8:1]/4h[8:1],,,7h[8:1]/6h[8:1],,,2-6[8:1]/1-5[8:1],,3/8,,2/1,,,,7h[8:1],,
3,,3,,3,,3,,5,4,5,4,6h[8:1],,4,5,
{8}3b,3,1/2,1/2,5/4,5/4,7/8,7/8,
{16}4/2,,6,5,7,,3,4,2,,5,4,6,,4,5,
3,,6,5,7,,3,4,2,,6,5,8,,3,4,
1x,5,1,5,2x,6,2,6,3x,7,3,7,4x,8,4,8,
5b,6,5,6,4,,1/3,,8/2,,7,8,7,8,6h[8:1],,
5x,7,4,6,3,5,2h[8:1],,4x,3,4,3,8,1,8h[8:1],,
3x,1,3,5,3,1,3h[8:1],,6,4,6,8,6,4,6h[8:1],,
5x,,5,,7,,7,,2b,8b,4b,6b,1b,7b,3b,5b,
2>5[0.3208##0.1583],,,8h[16:9]/2,,,7,,1,,5,,1,,,,
7<4[0.3208##0.1583],,,1h[16:9]/7,,,2,,8,,4,,8,,,,
2-6[0.3208##0.1583],,,8h[16:9]/2,,,7,,1,,5,,1,,,,
7-3[0.3208##0.1583],,,1h[16:9]/7,,,2,,8,,4,,8,,,,
1-5[0.3208##0.1583]/2-6[0.3208##0.1583],,,1/2,,,7/8,,4/3,,1/2,,6/5,,,,
8-4[0.3208##0.1583]/7-3[0.3208##0.1583],,,8/7,,,2/1,,5/6,,8/7,,3/4,,,,
2bx,4,3,7bx,5,6,4bx,5,2bx,5,4bx,5,1hbx[16:1],,1hx[16:1],,
7bx,5,6,2bx,4,3,5bx,4,7bx,4,5bx,4,8hbx[16:1],,8hx[16:1],,
Cf,
E
