&title=Artificial Existence
&artist=Jun Kuroda
&first=0
&des=FasToppp
&lv_1=0
&lv_5=14
&inote_1=
&inote_5=(191){4}
,3h[4:4],,,,4h[4:4],,,,5h[4:4],,,,{8}6h[4:4],,,A1/B1,,,A2/B2,,{4}3h[4:4],,,,4h[4:4],,,,5h[4:4],,,,6h[4:4],,,,{8}3,4,6,5,4,3,5,4,5,3,6,5,4,5,4,3,6
,5,4,
3,7h[4:1],4,3h[8:5],6,5,4,5,6h[8:3],4,3,2h[4:1],5,6h[8:6],4,3,4,5,4,2h[8:5],5,4,5,6,5,6,3,4,5,6,5,4,5,4,3,4,5,6,3,4
,5,6,5,3h[1:2],6h[8:15],,,,,,,,,,,,,,,,,5,6,7-5[8:1],,,3,3-8[4:1],,,4,5,6,7-4[8:1],2-5[8:1],7,2,6,7,8-5[8:1],,,3,3-1[8:1],,,5,6,7,8-4[8:1],2-5[8:1],8,2,7,8,1-6[8:1],,,3,3-8[8:1],,,5,6,7,/8-4[8:1],1-5[8:1],8,1,7h[8:2],3,3,6h[8:2],2,2,5h[8:2],1,1,6h[8:2],2,2,{16}7,,7,1,8-4[8:1]*-5[8:1],,{8},8b,,2-4[8:1],,,6,6<1[4:1],,,5,4,3,2-5[8:1],7-4[8:1],2,7,3,2,1>4[8:1],,,6,6-8[8:1],,,4,3,2,1q5[8:1],7-4[8:1],1,7,2,1,8-3[8:1],,,6,6-1[8:1],,,4,3,2,/1q5[8:1],8p4[8:1],1,8,2h[8:2],6,6,3h[8:2],7,7,4h[8:2],8,8,3h[8:2],7,7,{16}2,,2x,7x,3x,6x,4x,5x,,,,,{16}E6,B5,B4,E4,,
,,,B2,,,,,,,,,,,,,,E5,,E4,,E3,,E2,,,,,,,,,,,,B6,,,,,,,,,,,,B5/E6,,,,B3/E4,,,,B1/E2,,,,,,,,B4/E5,,,,B6/E7,,,,B8/E1,,,,,,,,B2/B3/E3/A2,,,,,,,,4h[8:14],,,,,,,,,,,,,,,,,,,,,,,,,,,,,,,,5b,,,,6,,7h[16:1],,2,3,4,,6h[16:1],,1,2,3,,5h[16:1],,8,1,2,,1x/5x,26,37,,3x/7x,26,15,,3b/7b,,,,3,,2h[16:1],,7,6,5,,3h[16:1],,8,7,6,,4h[16:1],,1,8,7,,8x/4x,73,62,,6x/2x,73,84,,6b/2b,,,,,,5/4h[8:2],6,7,8,,,1/2h[8:2],8,7,6,,,4/5h[8:2],3,2,1,,,8-4[8:1]/7,1,2,3,8,,,,2b/6b,,,,,,8/1h[8:2],7,6,5,,,4/3h[8:2],5,6,7,,,1/8h[8:2],2,3,4,,,5/6hx[8:2],4,3,2,1,8,7,6,5,{32}(127.3)7<4[8:1]/4x,E4,B3,B2,E2,,,,7/1x>4[8:1],,,,,,,,1/4,E5,B5,B6,E7,,,,8/5,E5,B4,B3,(191)E3/1hx[8:1],,,,8hx[8:1],,,,7hx[8:1],,,,6hx[8:1],,,,(127.3),,,,2>5[8:1]*>5[8:1]/5,E6,B6,B7,E8,,,,2/8x<5[8:1]*<5[8:1],,,,,,,,8/5,E5,B4,B3,E3,,,,1/4,E5,B5,B6,(191)E7/8hx[8:1],,,,1hx[8:1],,,,2hx[8:1],,,,3hx[8:1],,,,,,,,(127.3)7<6>5>4b[8:1]/4,E4,B3,B2,E2,,,,7/1x>2>3<4b[8:1],,,,,,,,1/4,E5,B5,B6,E7,,,,8/5,E5,B4,B3,(191)E3/1hx[8:1],,,,8hx[8:1],,,,7hx[8:1],,,,6hx[8:1],,,,(127.3),,,,2>3-5b[8:1]/5,E6,B6,B7,E8,,,,2/8x<7-5b[8:1],,,,,,,,8/5,E5,B4,B3,E3,,,,1/4,E5,B5,B6,(191)E7/8hx[8:1],,,,1hx[8:1],,,,2hx[8:1],,,,3hx[8:1],,,,,,,,,,,,(127.3)7-5>4b[8:1]/4,E4,B3,B2,E2,,,,7/1x-3<4b[8:1],,,,,,,,1/4,E5,B5,B6,E7,,,,8hx[8:2]/5,E5,B4,B3,(191)E3,,,,(191){8},7/2,6/3,{16}4-6>4v7>1[8:11]*-2>4v1<7[8:11]/5,,,,,,,,,,,,,,,,,,,,,,,,,,,,,,,,,,8b/1b,,,,2,,2pp5[8:3],,,,8-6[8:1],,,,8,,,,4,,3,,2h[4:1],,,,6,,7/8,,,,1/6,,,,7,,7qq4[8:3],,,,1-3[8:1],,,,1,,,,5,,6,,7h[8:5],,,,3,,2,,1,,8<4[8:1],1,2,3,,,2,,1<8-6>5[8:1],2,3,4,,,3,,8p4[8:1],1,2,3,,,,,3-7[8:1]/4-8[8:1],
,,,3/4,,,,2>1[16:11]/6,,,,6h[8:6]/2,,,,,,,,,,,,2,3,4,5,1,8,7,6,{32}2,3,4,5,6,7,8,1,{16}2>5[8:1],,,,2,,,,7,,7>2[8:1],,,,4,,4<7[8:1],,,,1-5[8:1],,,,1,,,,8-6[8:1]/4-2[8:1],,,,84,,,,5-8-3[8:3],,,,,,3-6-1-5[8:3],,,,2-4[8:1],,,,2,,,,,,,,45,,,,4,,5,,6,,{16}7-5[8:1],,2,,7,,1,,4-8[8:1],,1,,4,,2h[16:1],,7-3[8:1],,1,,7,,2,,4-6[8:1],,1,,4,,,,3-5[8:1],,7,,3,,8,,6-2[8:1],,8,,6,,7,7,1-5[8:1],,8,,1,,,,,4x/8x,3x/7x,2x/6x,1x/5x-2[8:1],,,,1h[8:11]/5b,,,,,,,,,,,,,,,,,,,,,,3,4,5,6,1,2,3,45,6,7,8b/1b,,,,7,,7qq4b[8:3],,,,1>3b[8:1],,,,1,,,,5,,6,,7h[8:4],,,,3,,2,,1,,8<4[8:1],1,2,3,,,,,5>1[8:1]*>1[8:1],6,7,8,,,,,8p4b[8:1],1,2,3,,,,,3-7[8:1]/4-8[8:1],
,,,3b/4b,,,,2>6<4[16:11]/6,,,,6h[8:6]/2,,,,,,,,,,,,5,6,7,8,1,2,3,6x/4h[8:2],{32}E6,E5,E4,E3,E2,E1,E8,E7,{16}E6/A6/A5/D6f,,,,3,4,2,5,3hx[8:1],,6,5,7,4,6hx[8:1],,2x,3,4,,8,7,1x,2,7x,6,2,3,8xp4[8:1]*xq4[8:1],,,,8,,,,7<5-1[8:2],,2-4[8:1],,7,,2,,,,8w4[8:1],,,,8,,,,,,,,5h[8:4],,,,4,,3,,2,,1,2,3,4,2,3,4,5,8,7,6,5,1,8,7,6,45,,3,,2,,54,,6,,7,,84,,84,,{32}37,,,,37,,,,26,,,,26,,,,15,,,,15,,,,84,,,,84,,,,15,,62,,73,,84,,15,,6,,7,,8,,1bx,2,3,4,5,6,7,8,1bx,2,3,4,5,6,7,8,{16}1hb[8:15]/5h[8:15],,,,,,,,,,,,,,,,,,,,,,{8},,,,,,,,5h[999:1],4h[999:1],6h[999:1],5h[999:1],4h[999:1],5h[999:1],4h[999:1],3h[999:1],7h[999:1],5h[999:1],6h[999:1],4h[999:1],5h[999:1],3hx[999:1],4h[999:1],2h[999:1],7h[8:1],4h[8:1],6h[8:1],3hx[8:1],5h[8:1],2h[8:1],7h[8:1],1h[8:1],8hx[8:1],2h[8:1],7h[8:1],3h[8:1],6h[8:1],2hx[8:1],8h[8:1],7h[8:1],6h[8:1],5h[8:1],1hx[8:1],2h[8:1],3h[8:1],8h[8:1],1h[8:1],7hx[8:1],2h[8:1],6h[8:1],3h[8:1],5h[8:18],4h[8:17],
