&title=Beautiful Nightmare
&artist=八王子P
&first=0
&des=Tane
&lv_1=2
&lv_2=4
&lv_3=7
&lv_4=10
&lv_5=12
&inote_1=(110)
{1},
{16}5,,,,
,,,,
5,,,,
,,,,
{16}4,,,,
,,,,
4,,,,
,,,,
{16}5,,,,
,,,,
5,,,,
,,,,
{16}4,,,,
,,,,
1,,,,
,,,,
{16}5,,,,
,,,,
5,,,,
,,,,
{16}4,,,,
,,,,
4,,,,
,,,,
{16}5,,,,
,,,,
4,,,,
,,,,
{16}45,,,,
45,,,,
45,,,,
45,,,,
{16}1s5[4:1],,,,
,,,,
8w4[8:1],,,,
,,,,
{16}26,,,,
,,,,
8p3[4:1],,,,
,,,,
{16}8z4[4:1],,,,
,,,,
1w5[8:1],,,,
,,,,
{16}73,,,,
,,,,
1q6[4:1],,,,
,,,,
{16}2s6[4:1],,,,
,,,,
8w4[8:1],,,,
,,,,
{16}26,,,,
,,,,
8p3[4:1],,,,
,,,,
{16}7z3[4:1],,,,
,,,,
1w5[8:1],,,,
,,,,
{16}73,,,,
6,,,,
45,,,,
27,,,,
{16}4,,,,
3,,,,
2,,,,
18,,,,
{16}7,,,,
6,,,,
5,,,,
18,,,,
{16}1h[4:1],,,,
,,,,
8h[4:1],,,,
,,,,
{16}18,,,,
18,,,,
1b/8b,,,,
,,,,
{16}1h[4:1],,,,
,,,,
8h[4:1],,,,
,,,,
{16}1h[4:1],,,,
8h[4:1],,,,
1w5[8:1],,,,
,,,,
{16}8h[4:1],,,,
,,,,
1h[4:1],,,,
,,,,
{16}8h[4:1],,,,
1h[4:1],,,,
8w4[8:1],,,,
,,,,
{16}4h[4:1],,,,
,,,,
5h[4:1],,,,
,,,,
{16}4h[4:1],,,,
5h[4:1],,,,
4w8[8:1],,,,
,,,,
{16}5,,,,
5h[4:1],,,,
4,,,,
4h[4:1],,,,
{16}5h[4:1],,,,
4h[4:1],,,,
5w1[8:1],,,,
,,,,
{16}6,,,,
,,,,
6,,,,
,,,,
{16}3,,,,
,,,,
3,,,,
,,,,
{16}6,,,,
,,,,
6,,,,
,,,,
{16}3,,,,
,,,,
4h[4:1]/7h[4:1],,,,
,,,,
{16}3,,,,
4,,,,
5,,,,
12,,,,
{16}6,,,,
5,,,,
4,,,,
78,,,,
{16}7h[4:1],,,,
,,,,
2h[4:1],,,,
,,,,
{16}18,,,,
18,,,,
1b/8b,,,,
,,,,
{16}2h[16:3],,,,
,,,,
2h[16:3],,,,
,,,,
{16}7h[16:3],,,,
,,,,
45,,,,
,,,,
{16}8h[16:3],,,,
,,,,
8h[16:3],,,,
,,,,
{16}1h[16:3],,,,
,,,,
27,,,,
,,,,
{16}4,,,,
5,,,,
3,,,,
6,,,,
{16}2,,,,
7,,,,
1,,,,
8,,,,
{16}1,,1,,
8,,8,,
2,,2,,
7,,7,,
{16}36,,,,
45,,,,
2b/7b,,,,
,,,,
{16}1h[4:1],,,,
,,,,
5h[4:1],,,,
,,,,
{16}5h[4:1],,,,
1h[4:1],,,,
5w1[8:1],,,,
,,,,
{16}8h[4:1],,,,
,,,,
4h[4:1],,,,
,,,,
{16}4h[4:1],,,,
8h[4:1],,,,
4w8[8:1],,,,
,,,,
{16}2h[4:1],,,,
,,,,
6h[4:1],,,,
,,,,
{16}6h[4:1],,,,
2h[4:1],,,,
6w2[8:1],,,,
,,,,
{16}3,,,,
3h[4:1],,,,
7,,,,
7h[4:1],,,,
{16}3h[4:1],,,,
7h[4:1],,,,
3w7[8:1],,,,
,,,,
{16}8h[4:1],,,,
,,,,
1h[4:1],,,,
,,,,
{16}6h[4:1],,,,
3h[4:1],,,,
1w5[8:1],,,,
,,,,
{16}1h[4:1],,,,
,,,,
8h[4:1],,,,
,,,,
{16}8h[4:1],,,,
1h[4:1],,,,
8w4[8:1],,,,
,,,,
{16}2h[4:1],,,,
,,,,
7h[4:1],,,,
,,,,
{16}7h[4:1],,,,
2h[4:1],,,,
5w1[8:1],,,,
,,,,
{16}7,,,,
7h[4:1],,,,
4,,,,
4h[4:1],,,,
{16}5h[4:1],,,,
2h[4:1],,,,
7,,,,
1b/8b,,,,
{1},,,,,,,,E
&inote_2=(110)
{1},
{16}5,,,1,
,,,,
5,,,2,
,,,,
{16}4,,,8,
,,,,
4,,,7,
,,,,
{16}5,,,1,
,,,,
5,,,2,
,,,,
{16}4,,,7,
,,,,
1,,,,
3,,,,
{16}5,,,12,
,,,,
5,,,34,
,,,,
{16}4,,,78,
,,,,
4,,,56,
,,,,
{16}5,,,34,
,,,,
4,,,56,
,,,,
{16}45,,,,
45,,,,
45,,45,,
45,,,,
{16}1s5[4:1],,,,
,,,,
8w4[8:1],,,,
,,,,
{16}26,,,,
1,,,,
8p3[4:1],,,,
,,,,
{16}8z4[4:1],,,,
,,,,
1w5[8:1],,,,
,,,,
{16}73,,,,
8,,,,
1q6[4:1],,,,
,,,,
{16}2s6[4:1],,,,
,,,,
8w4[8:1],,,,
,,,,
{16}26,,,,
7,,,,
8p3[4:1],,,,
,,,,
{16}7z3[4:1],,,,
,,,,
1w5[8:1],,,,
,,,,
{16}73,,,,
6,,,,
45,,,,
27,,,,
{16}4,,,,
3,,,,
2,,,,
18,,,,
{16}7,,,,
6,,,,
5,,,,
18,,,,
{16}1h[8:1],,,,
8h[8:1],,,,
1h[8:1]/8h[8:1],,,,
1h[8:1]/8h[8:1],,,,
{16}1b/8b,,,,
18,,,,
1b/8b,,,,
,,,,
{16}1h[4:1],,,,
8,,,,
8h[4:1],,,,
1,,,,
{16}1h[4:1],,,,
8h[4:1],,,,
1w5[8:1],,,,
,,,,
{16}8h[4:1],,,,
1,,,,
1h[4:1],,,,
8,,,,
{16}8h[4:1],,,,
1h[4:1],,,,
8w4[8:1],,,,
,,,,
{16}4h[4:1],,,,
5,,,,
5h[4:1],,,,
4,,,,
{16}4h[4:1],,,,
5h[4:1],,,,
4w8[8:1],,,,
,,,,
{16}5,,4,,
5h[4:1],,,,
4,,5,,
4h[4:1],,,,
{16}5h[4:1],,,,
4h[4:1],,,,
5w1[8:1],,,,
,,,,
{16}6,,,1,
,,,,
6,,,2,
,,,,
{16}3,,,8,
,,,,
3,,,7,
,,,,
{16}6,,,1,
,,,,
6,,,2,
,,,,
{16}3,,,8,
,,,,
,,,4h[8:1]/7h[8:1],
,,,,
{16}3,,,,
4,,,,
5,,,,
12,,,,
{16}6,,,,
5,,,,
4,,,,
78,,,,
{16}7h[8:1],,,,
2h[8:1],,,,
1h[8:1]/2h[8:1],,,,
7h[8:1]/8h[8:1],,,,
{16}1b/8b,,,,
18,,,,
1b/8b,,,,
,,,,
{16}2h[16:3],,,,
,,,,
2h[16:3],,,,
,,,,
{16}7h[16:3],,,,
,,,,
45,,,,
,,,,
{16}8h[16:3],,,,
,,,,
8h[16:3],,,,
,,,,
{16}1h[16:3],,,,
,,,,
27,,,,
,,,,
{16}4,,,,
5,,,,
3,,,,
6,,,,
{16}2,,,,
7,,,,
1,,,,
8,,,,
{16}1,,1,,
8,,8,,
2,,2,,
7,,7,,
{16}36,,,,
45,,,,
2b/7b,,,,
,,,,
{16}1h[4:1],,,,
5,,,,
5h[4:1],,,,
1,,,,
{16}5h[4:1],,,,
1h[4:1],,,,
5w1[8:1],,,,
,,,,
{16}8h[4:1],,,,
4,,,,
4h[4:1],,,,
8,,,,
{16}4h[4:1],,,,
8h[4:1],,,,
4w8[8:1],,,,
,,,,
{16}2h[4:1],,,,
6,,,,
6h[4:1],,,,
2,,,,
{16}6h[4:1],,,,
2h[4:1],,,,
6w2[8:1],,,,
,,,,
{16}3,,7,,
3h[4:1],,,,
7,,3,,
7h[4:1],,,,
{16}3h[4:1],,,,
7h[4:1],,,,
3w7[8:1],,,,
,,,,
{16}8h[4:1],,,,
3,,,,
1h[4:1],,,,
6,,,,
{16}6h[4:1],,,,
3h[4:1],,,,
1w5[8:1],,,,
,,,,
{16}1h[4:1],,,,
6,,,,
8h[4:1],,,,
3,,,,
{16}8h[4:1],,,,
1h[4:1],,,,
8w4[8:1],,,,
,,,,
{16}2h[4:1],,,,
5,,,,
7h[4:1],,,,
4,,,,
{16}7h[4:1],,,,
2h[4:1],,,,
5w1[8:1],,,,
,,,,
{16}7,,2,,
7h[4:1],,,,
4,,5,,
4h[4:1],,,,
{16}5h[4:1],,,,
2h[4:1],,,,
7,,,,
1b/8b,,,,
{1},,,,,,,,E
&inote_3=(110)
{1},
{16}5,,,1,
,,,,
5,,,2,
,,,,
{16}4,,,8,
,,,,
4,,,7,
,6,,,
{16}5,,,1,
,,,,
5,,,2,
,3,,,
{16}4,,,7,
,,8,,
1,,,2,
,34,,,
{16}5,,,12,
,,,,
5,,,34,
,,,,
{16}4,,,78,
,,,,
4,,,56,
,45,,,
{16}5,,,34,
,,,,
4,,,56,
,,,,
{16}45,,3,,
45,,6,,
45,,36,,
27,,,,
{16}1s5[4:1],,,,
,,,,
8w4[8:1],,,,
,,,,
{16}26,,,,
7,,1,,
8-6[8:1]*p3[4:1],,,,
,,,,
{16}8z4[4:1],,,,
,,,,
1w5[8:1],,,,
,,,,
{16}73,,,,
2,,8,,
1-3[8:1]*q6[4:1],,,,
,,,,
{16}2s6[4:1],,,,
,,,,
8w4[8:1],,,,
,,,,
{16}26,,,,
7,,7,,
8-6[8:1]*p3[4:1],,,,
,,,,
{16}7z3[4:1],,,,
,,,,
1w5[8:1],,,,
,,,,
{16}73,,,,
6,,45,,
45,,36,,
27,,,,
{16}4,,4,,
3,,3,,
2,,18,,
7,,18,,
{16}7,,7,,
6,,6,,
5,,18,,
2,,18,,
{16}1h[16:1],,1h[16:1],,
8h[16:1],,8h[16:1],,
1h[16:1]/8h[16:1],,1h[16:1]/8h[16:1],,
1h[16:1]/8h[16:1],,1h[16:1]/8h[16:1],,
{16}1b/8b,,23,,
1b/8b,,67,,
1b/8b,,,,
,,,,
{16}1h[8:1],,8,,
1h[8:1],,8h[8:1],,
1,,8h[8:1],,
1h[8:1],,8h[8:1],,
{16}1h[8:1],,8,,
1h[8:1],,8h[8:1],,
1w5[8:1],,,,
,,,,
{16}8h[8:1],,1,,
8h[8:1],,1h[8:1],,
8,,1h[8:1],,
8h[8:1],,1h[8:1],,
{16}8h[8:1],,1,,
8h[8:1],,1h[8:1],,
8w4[8:1],,,,
,,,,
{16}4h[8:1],,5,,
4h[8:1],,5h[8:1],,
4,,5h[8:1],,
4h[8:1],,5h[8:1],,
{16}4h[8:1],,5,,
4h[8:1],,5h[8:1],,
4w8[8:1],,,,
,,,,
{16}5,,4,,
5h[8:1],,4h[8:1],,
5,,4,,
5h[8:1],,4h[8:1],,
{16}5h[8:1],,4,,
5h[8:1],,4,,
5w1[8:1],,,,
,,,,
{16}6,,,16,
,,,,
6,,,25,
,,,,
{16}3,,,38,
,,,,
3,,,47,
,56,,,
{16}6,,,16,
,,,,
6,,,25,
,34,,,
{16}3,,,38,
,,12,,
38,,,4h[8:1]/7h[8:1],
,,,,
{16}3,,3,,
4,,4,,
5,,12,,
8,,12,,
{16}6,,6,,
5,,5,,
4,,78,,
1,,78,,
{16}1h[16:1],,8h[16:1],,
2h[16:1],,7h[16:1],,
1h[16:1]/8h[16:1],,2h[16:1]/7h[16:1],,
1h[16:1]/8h[16:1],,2h[16:1]/7h[16:1],,
{16}1b/8b,,67,,
1b/8b,,23,,
1b/8b,,,,
,,,,
{16}2h[16:3],,,,
,,,,
2h[16:3],,,,
,,,,
{16}7h[16:3],,,,
,,2,,
3,,,4,
,,,,
{16}8h[16:3],,,,
,,,,
8h[16:3],,,,
,,,,
{16}1h[16:3],,,,
,,8,,
1,,,3,
,3,,,
{16}4,,,,
5,,,,
3,,,,
6,,,,
{16}2,,,,
7,,,,
1,,,,
8,,,,
{16}1,,1,,
8,,8,,
2,,2,,
7,,7,,
{16}36,,,,
45,,,,
2b/7b,,,,
,,,,
{16}1h[8:1],,5,,
2h[8:1],,6h[8:1],,
3,,7h[8:1],,
4h[8:1],,8h[8:1],,
{16}5h[8:1],,1,,
4h[8:1],,8h[8:1],,
3w7[8:1],,,,
,,,,
{16}6h[8:1],,2,,
5h[8:1],,1h[8:1],,
4,,8h[8:1],,
5h[8:1],,1h[8:1],,
{16}6h[8:1],,2,,
7h[8:1],,3h[8:1],,
8w4[8:1],,,,
,,,,
{16}3h[8:1],,7,,
4h[8:1],,8h[8:1],,
5,,1h[8:1],,
4h[8:1],,8h[8:1],,
{16}3h[8:1],,7,,
2h[8:1],,6h[8:1],,
1w5[8:1],,,,
,,,,
{16}8,,4,,
7h[8:1],,3h[8:1],,
6,,2,,
5h[8:1],,1h[8:1],,
{16}4h[8:1],,8,,
5h[8:1],,1h[8:1],,
6w2[8:1],,,,
,,,,
{16}8h[8:1],,3,,
6h[8:1],,1h[8:1],,
8,,3h[8:1],,
6h[8:1],,1h[8:1],,
{16}8h[8:1],,3,,
6h[8:1],,1h[8:1],,
8w4[8:1],,3,,
,,,,
{16}1h[8:1],,6,,
3h[8:1],,8h[8:1],,
1,,6h[8:1],,
3h[8:1],,8h[8:1],,
{16}1h[8:1],,6,,
3h[8:1],,8h[8:1],,
1w5[8:1],,6,,
,,,,
{16}4h[8:1],,7,,
2h[8:1],,5h[8:1],,
4,,7h[8:1],,
2h[8:1],,5h[8:1],,
{16}4h[8:1],,7,,
2h[8:1],,5h[8:1],,
4w8[8:1],,7,,
,,,,
{16}5,,2,,
7h[8:1],,4h[8:1],,
5,,2,,
7h[8:1],,4h[8:1],,
{16}5h[8:1],,2,,
7h[8:1],,4h[8:1],,
5h[8:1],,2,,
4b/5b,,,,
{1},,,,,,,,E
&inote_4=(110)
{1},
{16}5,3,4,1,
,,,,
5,3,4,2,
,,,,
{16}4,6,5,8,
,,,,
4,6,5,7,
,6,,,
{16}5,3,4,1,
,,,,
5,3,4,2,
,3,,,
{16}4,6,5,7,
,,8,,
1,,,2,
,34,,,
{16}5,3,4,18,
,,,,
5,3,4,12,
,,,,
{16}4,6,5,81,
,,,,
4,6,5,78,
,56,,,
{16}5,3,4,12,
,,,,
4,6,5,78,
,,,,
{16}45,,2,,
45,,7,,
45,,36,,
27,,,,
{16}1s5[4:1],,,,
8,,8,,
8w4[8:1],,,,
,,,,
{16}26,,,,
7,7,1,1,
8-6[8:1]*p3[4:1],,,,
,,,,
{16}8z4[4:1],,,,
1,,1,,
1w5[8:1],,,,
,,,,
{16}73,,,,
2,2,8,8,
1-3[8:1]*q6[4:1],,,,
,,,,
{16}2s6[4:1],,,,
8,,8,,
8w4[8:1],,,,
,,,,
{16}26,,,,
7,1,7,1,
8-6[8:1]*p3[4:1],,,,
,,,,
{16}7z3[4:1],,,,
1,,1,,
1w5[8:1],,,,
,,,,
{16}73,,,,
6,,45,,
45,,36,,
27,,,,
{16}4,,4,,
3,,3,,
2,,1,,
8,,1,1,
{16}8,,8,,
7,,7,,
6,,1,1,
8,8,1,1,
{16}7,1,6,1,
5,1,4,1,
3,1,1,1,
1,1,1,1,
{16}1b,,8,8,
1b,,7,7,
1w5[8:1],,,,
,,,,
{16}1h[8:1],,8,8,
1h[8:1],,8h[8:1],,
1,1,8h[8:1],,
1h[8:1],,8h[8:1],,
{16}1h[8:1],,8,8,
1h[8:1],,8h[8:1],,
1w5[8:1],,8,8,
,,,,
{16}8h[8:1],,1,1,
8h[8:1],,1h[8:1],,
8,8,1h[8:1],,
8h[8:1],,1h[8:1],,
{16}8h[8:1],,1,1,
8h[8:1],,1h[8:1],,
8w4[8:1],,1,1,
,,,,
{16}4h[8:1],,5,5,
4h[8:1],,5h[8:1],,
4,4,5h[8:1],,
4h[8:1],,5h[8:1],,
{16}4h[8:1],,5,5,
4h[8:1],,5h[8:1],,
4w8[8:1],,5,5,
,,,,
{16}5,5,4,4,
5h[8:1],,4h[8:1],,
5,5,4,4,
5h[8:1],,4h[8:1],,
{16}5h[8:1],,4,4,
5h[8:1],,4,,
5w1[8:1],,4,4,
,,,,
{16}6,3,4,16,
,,,,
6,3,4,25,
,,,,
{16}3,6,5,38,
,,,,
3,6,5,47,
,56,,,
{16}6,3,4,16,
,,,,
6,3,4,25,
,34,,,
{16}3,6,5,38,
,,12,,
38,,,4h[8:1]/7h[8:1],
,,,,
{16}5,,5,,
6,,6,,
7,,8,,
1,,8,8,
{16}1,,1,,
2,,2,,
3,,8,8,
1,1,8,8,
{16}2,8,3,8,
4,8,5,8,
6,8,8,8,
8,8,8,8,
{16}8b,,1,1,
8b,,2,2,
8w4[8:1],,,,
,,,,
{16}5,4,3,2,
,,,,
5,4,3,2,
,,,,
{16}4,5,6,7,
,,23,,
34,,,45,
,,,,
{16}3,2,1,8,
,,,,
3,2,1,8,
,,,,
{16}6,7,8,1,
,,18,,
12,,,23,
,34,,,
{16}4,,4,,
5,,5,,
3,,3,,
6,,6,,
{16}2,,2,,
7,,7,,
1,,1,,
8,,8,,
{16}1,8,1,8,
2,7,2,7,
3,6,3,6,
4,5,4,5,
{16}45,,2,,
45,,7,,
4b/5b,,,,
,,,,
{16}1h[8:1],,5,5,
2h[8:1],,6h[8:1],,
3,3,7h[8:1],,
4h[8:1],,8h[8:1],,
{16}5h[8:1],,1,1,
4h[8:1],,8h[8:1],,
3w7[8:1],,7,7,
,,,,
{16}6h[8:1],,2,2,
5h[8:1],,1h[8:1],,
4,4,8h[8:1],,
5h[8:1],,1h[8:1],,
{16}6h[8:1],,2,2,
7h[8:1],,3h[8:1],,
8w4[8:1],,4,4,
,,,,
{16}3h[8:1],,7,7,
4h[8:1],,8h[8:1],,
5,5,1h[8:1],,
4h[8:1],,8h[8:1],,
{16}3h[8:1],,7,7,
2h[8:1],,6h[8:1],,
1w5[8:1],,5,5,
,,,,
{16}8,8,4,4,
7h[8:1],,3h[8:1],,
6,6,2,2,
5h[8:1],,1h[8:1],,
{16}4h[8:1],,8,8,
5h[8:1],,1h[8:1],,
6w2[8:1],,2,2,
,,,,
{16}8h[8:1],,3,3,
6h[8:1],,1h[8:1],,
8,8,3h[8:1],,
6h[8:1],,1h[8:1],,
{16}8h[8:1],,3,3,
6h[8:1],,1h[8:1],,
8w4[8:1],,3,3,
,,,,
{16}1h[8:1],,6,6,
3h[8:1],,8h[8:1],,
1,1,6h[8:1],,
3h[8:1],,8h[8:1],,
{16}1h[8:1],,6,6,
3h[8:1],,8h[8:1],,
1w5[8:1],,6,6,
,,,,
{16}4h[8:1],,7,7,
2h[8:1],,5h[8:1],,
4,4,7h[8:1],,
2h[8:1],,5h[8:1],,
{16}4h[8:1],,7,7,
2h[8:1],,5h[8:1],,
4w8[8:1],,7,7,
,,,,
{16}5,5,2,2,
7h[8:1],,4h[8:1],,
5,5,2,2,
7h[8:1],,4h[8:1],,
{16}5h[8:1],,2,2,
7h[8:1],,4h[8:1],,
5h[8:1],,2,2,
4b/5b,,,,
{1},,,,,,,,E
&inote_5=(110)
{1},
{16}5,3,4,1,
,,,,
5,3,4,2,
,,,,
{16}4,6,5,8,
,,,,
4,6,5,7,
,6,,,
{16}5,3,4,1,
,,,,
5,3,4,2,
,3,,,
{16}4,6,5,7,
,,8,,
1,,,2,
,34,,,
{16}5,3,4,18,
,,,,
5,3,4,12,
,,,,
{16}4,6,5,81,
,,,,
4,6,5,78,
,56,,,
{16}5,3,4,12,
,,,,
4,6,5,78,
,,,,
{16}45,,2,5,
45,,7,4,
45,,36,,
2qq5[4:1]/7,,,,
{16}2b,,,,
8z4[8:1],,8,,
8,,,1,
1-5[8:1],,7,,
{16}15,,,,
1,4,2,3,
14,,,1,
7pp4[4:1]/2,,,,
{16}7b,,,,
1s5[8:1],,1,,
1,,,8,
8-4[8:1],,2,,
{16}48,,,,
8,5,7,6,
58,,,8,
3pp1[4:1]/7,,,,
{16}3b,,,,
8z4[8:1],,8,,
8,,,2,
2qq8[8:1],,8q4[8:1],,
{16}2,,,,
8,5,7,6,
58,,,1,
6qq8[4:1]/2,,,,
{16}6b,,,,
1s5[8:1],,1,,
1,,,7,
7pp1[8:1],,1p5[8:1],,
{16}7,,,,
4,,3,6,
45,,36,,
27,,,,
{16}4,,4,,
3,,3,,
2,,18,,
7,,18,18,
{16}7,,7,,
6,,6,,
5,,18,18,
2,2,18,18,
{16}18,2,18,7,
18,3,18,6,
18,18,18,18,
18,18,18,18,
{16}18,,27,27,
1s5[4:1]/8z4[4:1],,36,36,
1b/8b,,,,
,,,,
{16}1-3[8:1],,8-4[8:1],8,
1,,8,,
1-5[8:1],1,8-6[8:1],,
1-3[8:1],,8,,
{16}1-5[8:1],,8-4[8:1],8,
1-3[8:1],,8,,
1w5[8:1],,8,8,
1,,,,
{16}8-6[8:1],,1-5[8:1],1,
8,,1,,
8-4[8:1],8,1-3[8:1],,
8-6[8:1],,1,,
{16}8-4[8:1],,1-5[8:1],1,
8-6[8:1],,1,,
8w4[8:1],,1,1,
8,,,,
{16}1-5[8:1],,8-6[8:1],8,
1,,8,,
1-3[8:1],1,8-4[8:1],,
1-5[8:1],,8,,
{16}1-3[8:1],,8-6[8:1],8,
1-5[8:1],,8,,
1V36[8:1]*V74[8:1],,8,8,
1,,,,
{16}8-4[8:1],8,1-3[8:1],1,
8,,1,,
8-6[8:1],8,1-5[8:1],1,
8-4[8:1],,1,,
{16}8-6[8:1],,1-3[8:1],1,
8-4[8:1],,1,,
8V63[8:1]*V25[8:1],,1,1,
8,,,,
{16}6,3,4,16,
,,,,
6,3,4,25,
,,,,
{16}3,6,5,38,
,,,,
3,6,5,47,
,56,,,
{16}6,3,4,16,
,,,,
6,3,4,25,
,34,,,
{16}3,6,5,38,
,,12,,
38,,,4h[8:1]/7h[8:1],
,,,,
{16}3,,3,,
4,,4,,
5,,12,,
8,,12,12,
{16}6,,6,,
5,,5,,
4,,78,78,
1,1,78,78,
{16}78,1,12,8,
17,1,28,8,
18,18,18,18,
18,18,18,18,
{16}18,,27,27,
1s5[4:1]/8z4[4:1],,36,36,
18,,,,
,,,,
{16}5,4,3,2,
,,,,
5,4,3,2,
,,,,
{16}4,5,6,7,
,,23,,
34,,,45,
,,,,
{16}3,2,1,8,
,,,,
3,2,1,8,
,,,,
{16}6,7,8,1,
,,18,,
12,,,23,
,34,,,
{16}4,,4,,
5,,5,,
3,,3,,
6,,6,,
{16}2,,2,,
7,,7,,
1,,1,,
8,,8,,
{16}1,8,1,8,
2,7,2,7,
3,6,3,6,
4,5,4,5,
{16}45,,2,2,
4s8[4:1]/5z1[4:1],,7,7,
4b/5b,,,,
,,,,
{16}1-3[8:1],,8-4[8:1],8,
1,,8,,
1-5[8:1],1,4-8[8:1],,
1-3[8:1],,4,,
{16}1-5[8:1],,8-6[8:1],8,
1-3[8:1],,8,,
1w5[8:1],,8,8,
1,,,,
{16}8-6[8:1],,1-5[8:1],1,
8,,1,,
8-4[8:1],8,5-1[8:1],,
8-6[8:1],,5,,
{16}8-4[8:1],,1-3[8:1],1,
8-6[8:1],,1,,
8w4[8:1],,1,1,
8,,,,
{16}1-5[8:1],,8-4[8:1],8,
1,,8,,
1-3[8:1],1,4-8[8:1],,
1-5[8:1],,4,,
{16}1-3[8:1],,8-6[8:1],8,
1-5[8:1],,8,,
1V36[8:1]*V74[8:1],,8,8,
1,,,,
{16}8-4[8:1],8,1-5[8:1],1,
8,,1,,
8-6[8:1],8,5-1[8:1],5,
8-4[8:1],,5,,
{16}8-6[8:1],,1-3[8:1],1,
8-4[8:1],,1,,
8V25[8:1]*V63[8:1],,1,1,
8,,,,
{16}3-1[8:1],,8-4[8:1],8,
3,,8,,
1-5[8:1],1,8-6[8:1],,
1-3[8:1],,8,,
{16}1-5[8:1],,8-4[8:1],8,
1-3[8:1],,8,,
1w5[8:1],,8,8,
1,,,,
{16}6-8[8:1],,1-5[8:1],1,
6,,1,,
8-4[8:1],8,1-3[8:1],,
8-6[8:1],,1,,
{16}8-4[8:1],,1-5[8:1],1,
8-6[8:1],,1,,
8w4[8:1],,1,1,
8,,,,
{16}3-1[8:1],,8-4[8:1],8,
3,,8,,
1-5[8:1],1,4-8[8:1],,
1-3[8:1],,4,,
{16}1-5[8:1],,8-6[8:1],8,
1-3[8:1],,8,,
1w5[8:1],,8,8,
1,,,,
{16}6-8[8:1],6,1-5[8:1],1,
6,,1,,
8-4[8:1],8,5-1[8:1],5,
8-6[8:1],,5,,
{16}8-4[8:1],,1-3[8:1],1,
8-6[8:1],,1,,
8w4[8:1],,1,1,
8b,,,,
{1},,,,,,,,E
