&title=君とインフィニティ -2021-
&artist=オルタンシア
&first=0.06
&des=呀!吼!
&des_6=呀!吼!
&lv_6=14+ 歌词大意: 唱歌~ 在这里唱歌~ 呀吼 和你 和你和你和你和你和你 相遇的奇迹~无限大~ go! 呀吼 呀吼 呀吼 孤单一人?nonono! 孤独难耐 就当作是被骗随心所欲的 sing sing singing 丢掉限制~脱掉羞耻~ 大家一起度过的话就一点都不可怕~ok! 异口同声!突破极限! 全身心投入吧~ 唱歌~ 在这里唱歌~ 呀吼 和你 和你和你和你和你和你 度过的时间能变成力量💪 唱歌~超能唱歌~呀吼! 和你 和你和你和你和你和你 连在一起的心情~ 无限大! go! 呀吼 呀吼 呀吼 dokann!会滚的存在感! 补豪!这就是一体感! 如果是这个瞬间的话 yes we can 来吧来吧大家一起唱 oh yeah 在心中~生长的可能性~ 不知道什么时候~变成了超几把大的花~ 绝对~绝对要让他绽放~ 和你 和你和你和你和你来~ 唱歌~ 在这里唱歌~呀吼 和你 和你和你和你和你和你 度过的时间能变成力量💪 唱歌~在这里唱歌~呀吼! 和你 和你和你和你和你和你~描述的未来~无限大~! go! 呀吼! 呀吼! 呀吼! 嘚嘚嘚 嘚嘚嘚 嘚嘚嘚嘚嘚嘚 🟥 🟩🟦 🟩 🟥 🟥 🟦
&inote_6=(180){4},{1},,{4},,,{32}8b/1b,
2/7,3/6,5/4V28[32:13],,,,,,,,,,,,,{2}B5/B6,
{4}6<1[4:1],B4/E5,2h[8:1],8h[8:1],
{32}1b/8b,7/2,6/3,5/4,,,,,,,,,,,,,{4}B7/E8,{8}2v5[8:1],1,
{4}2b,{8}7,5,4/6h[8:1],3,{4}4/2qq7[4:3],
{2}4h[4:1],5h[4:1],
{4}8/6,{8}1<6[8:1],8,{4}2/1,{8}4,{16}3,4,
{4}2b,{8}2,2,2/8,2,2/4,2,
{4}6/2pp8[8:5],{8}6,6,6,6,6,6w2[8:5],
{16},,,,,,,,,,,,,,,,4,
4,8,8,2,2,6,6,3>8b[8:1],7,3,7,{4}A3f,
{8}7,7h[4:1],5,4,,6h[4:1],4,3,
,5h[4:1],3,2,{4}1h[8:1]/A4/E4/D4,7/B6/B5/E6,
{8}2,2h[4:1],4,5,,3h[4:1],5,6,
,4h[4:1],6,7,{4}8/A5/E6/D6,2/B3/B4/E4,
{8}7,7h[4:1],5,3,,6h[4:1],4,2,
,5h[4:1],3,1,{4}7h[8:1]/A4/E4/D4,2/B6/B5/E6,
{8}2,2h[4:1],4,6,,3h[4:1],5,7-5[8:1],
,7/8-4[8:1],,8/1-3[8:1],,1/5,6,7,
4b/8-4[8:1],,,3-8[8:1],,7-3[8:1]*-4[8:1],,7,
,2,6,5,{4}3/4-8[8:1],4/6>3[8:1],
{8}6b/1-5[8:1],,,6-1[8:1],,2-6[8:1]*-5[8:1],,2,
,7,4,{16}6,5,{8}6,{16}2,1,{4}3<6[8:1],
3b/8-4[8:1],{8}8,3-8[8:1],,7-3[8:1],5,7,
,4,5-2[8:1],6,{4}7-3[8:1]*-4[8:1],7,
2/6-8[8:1],{8}6,5,4-7[8:1],3,{4}4/2-5[8:1],
1b-5[8:1],8b,{8}7b/3b,{16}4,5,4,5,4,5,
{8}2,4,{16}3,4,3,4,{8}3,5/2,6/1,{16}7,8,
{8}7-3[8:1],6,7/1-6[8:1],2,5/1-4[8:1],5,{4}1/5,
{8}7,3,6h[8:1],{16}4,5,4,5,{8}4,3,4/2-6[8:1],
,2/1,8-3[8:1],7,4/8-5[8:1],4,{4}4/8,
{8}2,6,{16}4,5,4,5,{8}4,6/3,7/2,{16}8,1,
{8}8-4[8:1],7,8/2-7[8:1],3,6/2-5[8:1],6,{4}2/6,
6<1[8:1],B5/E5,{8}3v8[8:1],4,{4}3,
5<8[8:1],{8}5/2,3,{12}7,5,6,2,4,3,
{8}5bpp1[2:1],,,4,{4}3,2,
{8}2/4pp7[2:1],,,3,{4}2,{8}2,3,
4/6p4[2:1],,,2,{4}1,1-5[8:1],
1<6[8:1],1>4[8:1],1,{16}6,5,6,5,
{4}7h[4:1],{8}4,2h[4:1],,4,{4}7h[4:1],
{8}6,2h[4:1],,1,{4}8<5[8:1]*>3[8:1],8-4[8:1],
8,{8}2/6,2,2/4,2,8/2,2,
{32}2,3,{16}4-1[16:3],{32},,,,,,,,,,,,7,6,{16}5-8[16:3],,,,,,,{4}3,
{8}A7/E8/D8,A7/E8/D8,{4}1b,A2/E2/D2,
3,{8}A7/E8/D8,E8/A7/D8,{4}1b,A2/E2/D2,
3,{8}A7/E8/D8,A7/E8/D8,{4}1b,A2/E2/D2,
3,{8}A7/E8/D8,A7/E8/D8,{4}1b/A3/E4/D4,2b/A6/E6/D6,
{8}7-4[8:1],{16}8,8,{8}7,1,{16}2-5[8:1],8,,8,{8}2,6,
7-4[8:1],{16}8,8,{8}7,1,{16}2-5[8:1],8,,8,{8}2,6,
7h[8:1],{16}8,7,1,8,2,7,1,8,3,5,1-5[8:1],8,4,6,
{4}1bV74[8:1],1bV36[8:1],{2}1b,
{8}7<5[8:1],4,{4}7>3[8:3],{8}2,3,4,5p1[8:1],
,8/5,{4}7,{8}6/8q4[8:1],7/1,{4}8/2,
{8}2x>4[8:1],5,{4}2<6[8:3],{8}7,6,5,4q8[8:1],
,1/4,{4}2bxq6[8:1],1bxq5[8:1],8bx,
{8}7>1[8:1],6,{4}7<3[8:3],{8}3,2,1,8q4[8:1],
,5/8,{4}6,{8}7/5p1[8:1],6/4,{4}5/3,
{8}2x<8[8:1],3,{4}2>6[8:3],{8}6,7,8,1p5[8:1],
,4/1,{4}3>5b[4:1],{8},,,,7-5[8:1],
5,{4}7V13[4:1],{8}2,3,4,5-1[8:1],
,8/5,{4}7,{8}6/8v3[8:1],7/1,{4}8/2,
{8}2x-4[8:1],5,{4}2V86[4:1],{8}7,6,5,4-8[8:1],
,1/4,{4}2b-6[8:1],1b-5[8:1],8b,
{8}7-1[8:1],6,{4}7V53[4:1],{8}3,2,1,8-4[8:1],
,5/8,{4}6,{8}7/5v2[8:1],6/4,{4}5/3,
{16}3b,5,4,5,4,5,3b,5,4,5,4,5,3b,5,4,5,
2b,6,5,6,5,6,2b,6,5,6,5,6,1b,7b,8b,7bpp4>6[16:25],
{1},{4},,,5,
5b<1[2:1],{8}4,3h[8:5],{4},,{48}D2,
A2,{4},{16},,,{48},{8}2,3,4,5,
{4}6>3[8:3],{8}1,8,,,{4}8q4[8:3],
{48}A7,D7,{4},{16},,,{48},{8}6,5,{4}4h[2:1],
{8},,5,4,{2}3h[2:1],
{4}1p5[8:3],{8}3,2,,1<5b[2:1],,,{2}3h[4:1],
4pp6pp8[2:1]*qq2qq8[2:1],
{16},,,,,,2,4,{8}3,5/6,8/7,1/2,
3b/4b,,,6,5,,,3,
4,,,4,{4}5h[4:1],3h[4:1],
{8}1h[8:3],,,2,1,3,{4}4>1[8:1],
4b/5<8[8:1],5b/4>1[8:1],{8}4b/5,6,{16}8,7,8,7,
{12}1b/6bh[12:1],1,1,1b/4bh[12:1],1,1,1b/2bh[12:1],1,1,1b/8bh[12:1],1,1,
{8}1b/8b,7/2,6/3,4/5-7[8:1],,5/4-8[8:1],,2/4,
{4}1,{8}1/8,8/1,1/8,1/8,8/1,1/8,
1b/8b,{16}1,8,1,8,1,8,{4}1,{32}1,2,3,4,5,6,7,8,
{4}1/Cf,{8}1,3/4,1,3/4,1,3/4,
1,5/4,1,4/5,2,5/6,2,5/6,
{4}7b/1b,{8}8,6/5,8,5/6,{4}8>3[8:1]*<6[8:1],
8b,{8}4/5,3/2,5/4,6/7,{4}1/8h[8:1],
{12}5/3,5/3,3/5,4/6,6/4,4/6,3/5,5/3,5/3,4/6,6/4,4/6,
{8}3/5,2,4/6,7,8/1,2,3/4,5/6,
{4}7b/8b,{8}8,{16}7,5,{8}6,3/4,2,5/3,
8,7/5,6/4,5/3,4/2,3/1,{16}8,2,8,2,
{4}1,{8}1,3/5,1,3/5,1,3/5,
8,5/3,8,5/3,7,5/3,7,5/3,
{4}2b,{8}2,4/6,2,4/6,{4}1>3[8:1]*<6[8:1],
1b,{8}4/5,6/7,5/4,3/2,{4}8/1h[8:1],
{12}5/7,5/7,5/7,2/4,4/2,2/4,5/7,7/5,5/7,4/2,2/4,4/2,
{8}3/5,8/2,6/4,1>4[8:1]/7<4[8:1],,1/7,{16},,5/3,6/2,
{4}7/1,{8}1/7,6/5,8/2,4/3,8/7,5/6,
{2}1b<6[8:1]/2b>5[8:1],8b>3[8:1]/7b<4[8:1],
{1}1bw5b[2:1]/8bw4b[2:1],
{16}1,1,5,5,3,3,7,7,2>5b[8:1],6,2,6,{4}A2f,
{8}6,7<4[8:1],8,7/1h[4:1],,8<5[8:1],1,8/2,
,3,1<6[8:1],2,1b/3-8[8:1],4,{4}3b,
{8}4,2>5[8:1],1,2/8h[4:1],,1>4[8:1],8,1/7,
,6,8>3[8:1],7,{4}8b/6-1[8:1]*-2[8:1],6b,
{8}3,8<5[8:1],1,8/2h[4:1],,1>4[8:1],8,1/7,
,7,8-4[8:1],1,8b/2-6[8:1],3,{4}2b,
{8}7,1>4[8:1],8,1/7h[4:1],,8<5b[8:1],1,8/3>8b[8:1],
,3/6>3b[8:1],,6/1<6[8:1],,5,4,3h[8:1],
,2b/4b,5b/7b,1b/3b,6b/8b,2b/4b,5b/7b,3b/1bh[8:3],
{16},,,,,,6,2,{2}8b/4b,
E
