&title=水彩世界
&artist=スリーズブーケ
&first=0.003
&des=Hemo
&lv_5=14.0
&inote_5=(162){4},,,,,,,
(162){64},,,
(162){4}3,4,5,3/6pp4[81#4:5],,1,2,3qq5[162#4:7],,B7,B2,C,,E1,C,,,{16},1h[16:5]/8h[16:5],,,
(162){16},,,1/8,2/7,3/6,,,,
(162){16}4/5,,,,3/6,,4,,5<1[4:1],,,,1>5[8:3],,,,3,,5<1>5<1[4:4],,,,3,,3,,3,,3h[16:17],,,,,,,,,,,,,2,,4,,5h[8:15],,,,,,,,,,,,,,,,,,E1,,E8,,E7,,E6,,E5,,E4,,E3,,
(162){8}1/5,1,6,1,6/2,2,7,2,8qq8[8:3]/3,,1-3[8:1],2,1-5[8:1],,1,,
(162){8}1/8,7,8/7,1,2/1,8,3<6[8:2],,6<3[16:9]*q3[16:9],,,,B5/B4/E5,,E8/B8/B7,,
{32},
(162){16}8<5[8:1],,1,,2,,3>8[8:1],,4,,5,,6>3[8:1],,,,
(162){32}7x,8x,1x,2x,,
(162){8},,1,2,3/8,7,6/1,2<7[16:1],,2/3,5>2[16:1],,5/6,8<5[16:1],,8,4h[16:2],3h[16:4],,
(162){24}1bw5b[24:2],,,,,,,,,,,,
(162){24},7<4[8:1]/8,,,,,,8b,,,,,,1/2>5[8:1],,,,,,1b,,,,,,
8,,,1,,,2-5[8:1]/7-4[8:1],,,,,,2/7,,,,2,,7,,,1,,,1/8,,,2,,,
(162){24}7-3[24:3],,,3v5[24:3],,,
(162){16}7,,,,5xh[8:1]/2>5[8:1],,,,2<7[8:1],,,,2,,,,8-3[8:1]/4-7[8:1],,,,
(162){24},
(162){16}4/8,,,2,1,,5h[8:7],,6,,,,6,,6,,6,,6<2[4:1],,6,,E3,E4,E5,E6,E7,E8,E1,E2,E3,E4,E5/C,,1/8,,7b/3b,,6,5,4,,7b/3b,,2,1,8,,7b/3b,,6,5,4,,7b/3b,,,3/4,,8,7,6,5,4<1[648#16:17],1,2,3,4,5,
(162){12}2xh[12:6]/6bx,,,,5,,
(162){24}5x,1,8h[12:2],,,,B2/E2,,,,,,3h[12:6]/7,,,,,,,,8,,,,8x,4,5h[12:2],,,,E1/B8,,,,,,6h[12:6]/2,,,,,,,,4,,,,4x,7,8h[12:2],,,,B3/E4,,,,,,1h[12:6]/7,,,,,,,,,5,,,,5x,2,3h[24:7],6,,,7,,,8,,,1/2,,,3/4,,,5/6,,,7h[8:3]/8h[8:3],,,,,,,,,,,,,,,7/8,,,5/6,,,3/4,,,1h[8:3]/2h[8:3],,,,,,,,,,,,,,,,
(162){16}4b/7b,,6,5,6,,7/8,,5b/2b,,3,4,3,,1/2,,5b/6b,,4/7,,3/8,,1/2,,3b/4b,,2/5,,1/6,,7/8,,2b,4,3,5,4,6,5,7,8b,8,8,8,8,8,8-4[16:15],8h[16:9],,,,,,,,,,,,,8-4b[16:1],,,,8b>6[16:9]/Cf,,,,,,,,{24},{16}6>1b[4:2],,,,C,,,,1-3-5[4:2],,,,,,,,5-7-1b[4:2],,,,C,,,,1<3[4:2],,,,,,,,3<8b[4:2],,,,C,,,,1w5[8:1],,,,,,,,8qq6[81#16:5]/4qq2[81#16:5],,2qq8[45#16:4]/6qq4[45#16:4],,8/4,,,,,,,,B8/B4,,,,C,B5/B1,,,,,,,,C,,,,,,,,5/1,,8/4,,7/3,,6/2,,1-6[324#16:1]/5-2[324#16:1],,1b/5b,,,,7-2[324#16:1]/3-6[324#16:1],,7b/3b,,,,3-8[324#16:1]/7-4[324#16:1],,3b/7b,,,,1,2,3/5,6,7,8,4,3,5,6,3,2,6,7,
(162){16}8b/5,,4>1[16:2],,5,,7,,6,,6-3[16:2],,3,,5,,4,,2-7[16:2],,5,,7,,8,,8<5[16:2],,1,,2,,,
1h[16:8],,,2,,,3,,4h[16:8],,,5,,,6,,7h[16:12],,,8,,,1,,2h[16:4],,,,{80}D7/D3,A6/A3,D6/D4,A5/A4,D5,{16},,,7h[16:4]/5,,,,,,3,,6-1b[16:1]/7<4b[16:1],,,,6b/7b,,,,2h[16:4]/3,,,,,,7,,5<8b[16:1]/2>5b[16:1],,,,2b/5b,,,,4b,5,4,5,4,5,4,5,3b,6,3,6,3,6,3,6,2b,7,1,8,2,7,1,8,5b,7,4,6,3,5,2,4,1b,3<8[16:16],,8,,1,,2,,,,,,4,,2,,8<3b[16:16],,1,,2,,2,,,,2,,2,,,,2,,,,2-5[16:2],,2,,,,4-7[16:2],,4,,,,6h[16:15],,,,,,,,2h[16:7],,,,,,,,{32}2xh/6bx,1xh/5bx,8xh/4bx,7xh[16:28]/3bxh[16:10],{16},,,,,,,,,,,E1/B1,,B5/E5,,E7/B7,,B3/E3,,B6/E6,,B2/E2,,,,5,,5h[16:4],,,,4h[16:4],,,,3h[16:4],,,,2h[16:4],,,,1h[16:4],,,,8h[16:8],,,,,,,,4qq4[16:6]*pp4[16:6],,,,,,,,,{16},,,,,C/4<2[16:40]*<2[16:40],,,,8-5qq5[16:36],,,,8b,,,,,
