&title=いまきみに
&artist=Silentroom as "少年R"
&first=0
&des="Y"outers
&lv_5=14+
&inote_5=(88)
{2},5w1[8:9],
{1},
{8}2h[8:3]/5,4,4,{24}4,4,2,{8}5h[8:3],3,3h[24:2],{24}3,5,4,
{8}7h[8:3],5,5,{24}5,5,7,
{16}8b-4[32:1],,35,8b/1,,,{24}2,4,4,
{8}5h[8:3]/1,8,8,{24}8,8,6,{8}1h[8:3],7,7h[24:2],{24}7,1,8,
{8}2^5[8:1],5p1[8:1],{32}1b/2,,,7b,,,7b,,
{16}8b-4[32:1],,35,8b/1,,,{24}7-4[16:1],2,8,
{24}1h[8:1],,,7^2[16:1],,3,3,,,7/5-1[16:1],,,34,,,65,,,7,7,5,6,6,4,
{24}5h[8:1]/4,,,2-5[16:1],,8,8,,,21,8,7,
{12}6b,4b/2,{24}8b/2,1,{48}7,6,5,4,,,{24}2,3,2,
{8}4V61[8:1],6h[4:1]/1>7[4:1],4,,,8h[8:1],{48}6,5,4,3,2,1,{24}6,8,7,
{8}1V74[8:1],7h[4:1]/4>6[4:1],1,,5h[4:1],,{24}4,3,2,1-5[16:1]/8,7,6,
{24}5h[8:1],,,1^6[16:1],7,7,3h[8:1],,,1^4[16:1],,,
{24}5h[8:1],,,1p5[16:1],6,7,8,,,1/2^7[16:1],,,
{24}4h[8:1],,,2-5[16:1],3,3,8h[8:1],,,2,,,1h[8:1],,,
{24}5,4,3,6,5,4,7^2[16:1],5,5,
{24}6h[8:1],,,7-4[16:1],5,5,3h[8:1],,,7-2[16:1],,,12,,,7/5-1[16:1],,,3/8<5[8:1],,,5^2[8:1],,,2^7[8:1],,,7,,,4,,3,,2,2h[24:5],
{24}1b,,4b,,7b,7,{48}1,2,3,4,,,{24}7,5,6,
{24}2-5[16:1],4,2,1<4[16:1],3,8,2,,,1,,,
{24}2-6[16:1],8,1,8-3[16:1]*-5[16:1],1,7,2,,,8,,,
{24}7-4[16:1],5,7,8>5[16:1],6,1,7,,,8,,,
{24}7h[24:4]/6b,,1b,,4b,7,{24}6,7,8,7,1,7,
{8}2<5[8:1],5pp2[4:1]/4h[4:1],2,,
{24}4,,4,,4,1,{24}8,7,6,54,3,2,
{8}1h[4:1]/4,6,4,{24}62,,2h[24:4],4,,,6h[8:1],,,,
{48}4,3,2,1,8,7,6,5,4,3,2/5,6,7,8,1h[8:1],,,,4,,4h[24:2],,,,
2,1,8,7,62,,3,,5,,4,5,6,7,8,1,26,,7,,1h[8:1],,
,,,,8,7,6,5,4,3,2,1,85,4,3,2,1,8,6,,5,,7h[8:1],,,,,,
8,1,2,3,4,5,6,,7h[24:1],,1,2,3,,6h[24:1],,8,1,2,,4,,3,,5h[8:1],,,,3,2,1,,
{48}4,3,2,1,8,7,63,2,1,8,7,6,52,1,8,7,6,5,41,8,7,6,5,4,38,7,6,2,3,4,7,6,5,1,2,3,7,6,5,2,3,4,5,6,7,1,2,3,8b,1,2,3,4,5,6,7,8,1h[48:15]/4s8[48:26],,,{4},,,
{24}6h[24:2],,,4,5,3,3,4,2,5,3,6,7<4[16:1]/4h[4:1],,,1,,,7,2,2,
1,1,3,2,4,3,5,4,6,5,5,7h[24:1],1,1,3h[24:1],2,4h[24:1],6,8h[24:1],3,5h[24:1],7,3h[48:1],1,7h[24:1],5,1h[48:1],
{4}3b/7b-3[4:3],8,5,2,
{48}1b,,4,2,4,,3,,4,,3,,2b,,4,3,5,,4,,5,,4,,
{24}6h[8:1]/3>7[8:1],,,5,5,5,3,,,4h[24:2],,,
{24}2^5[16:1]/5,,,1,8,1,2/7-4[16:1],,,4,6,5,7^2[16:1],,,5,3,3,7/4-1[16:1],,,6,5,7,4-7[16:1],,7,8,5,3,4-1[16:1]*-8[16:1],
,8,2,1,3,4,,,6,5,5,{48}7,8,1,,{24}4,4,2,5,
{24}7^4[16:1],,,8,1,8,7/2-5[16:1],,,5,3,4,2^7[16:1],,,4,6,6,2/5-8[16:1],,6,3,4,2,5-2[16:1],,2,1,4,6,5-8[16:1]*-1[16:1],
,1,7,8,6,5,,,3,4,4,{48}2-5[16:1],1,8,,{24}5,5,7,4,
{24}2-6[16:1],,,8,1,7,2-7[16:1],,,5,3,4,2/5-2[16:1],,,8,1,6,
{12}6q2[16:1]/5,18,34,
{24}6/5^8[16:1],,,3-8[16:1],4,2,5-1[16:1],,,31,,,
{12}5b/6,7b,8b/1,{24}2,3,4,5,6,7,
{24}8/1-5[16:1],,,4,3,4,1^6[16:1],,,2,8,3,1^4[16:1],,,2,2,8,
{12}1/7b,8b,1b,{24}5,5,7,4,6,5,7,7,4,5,2,4,{24}1b/3,2b/4,3b/5,4bq5[8:1]/6,5b/7,6b/8,1b,,,4,,,
{24}7^4[16:1],,8,8,1,8,7/2-5[16:1],,,1,3,4,2^7[16:1],,8,4,6,6,2/5-8[16:1],,,3,4,2,5-2[16:1],,2,1,4,6,5-8[16:1]*-1[16:1],
,1,7,8,6,5,,,3,4,4,{48}2,1,8,,{24}5,5,7,4,
{24}3^8[16:1],,4,4,5,4,3/6-1[16:1],,,5,7,8,6^3[16:1],,4,8,2,2,6/1-4[16:1],,,7,8,6,1b-6[16:1],,6,5,8,2,1b-4[16:1]*-5[16:1],
,5,3,4,2,1b,,,7,8,8,{48}6,5,6,,{24}1,1,3,8,
{48}2b/7b,,,,,,3,4,3,,3,,3,,3,,3,,4,,4,,4,,3/5,,,,,,5,4,6,,6,,7,,7,,7,,8,,8,,8,,
{48}3b/6b,,,,,,2,1,2,,2,,2,,2,,2,,1,,1,,1,,2/8,,,,,,8,1,7,,7,,6,,6,,6,,5b,4,3,2,1,8,
{8}7V14[8:1]/5,1/4<2[4:1],7/2,2V47[4:1],,5h[8:1],,3,
{8}2V85[8:1]/4,8/5>7[4:1],2/6,7V52[4:1],4h[8:1],,8h[8:1],,
{24}1>5[8:1]/5,,,5>1[8:1],6,7,8/1q5[8:1],,,7,,,8,,,
6,7,8,5,6,4,5,3,4,2h[8:1],,,4,5,6,7h[12:1]/3,,8h[12:1],,1h[12:1],,2,4,3,5,4,6,7,8,1,2,3,4,
{1}5bw1[4:4],,
(264)1p4[4:9]*q6[4:9],,,
{4}2-5[8:1],2b,,7-4[8:1],7b,,
{8}1-5[8:1],,1b,8,,,57,,3/7h[4:1],,{24}5,4,3,2,1,8,
{8}6,6,8,7,1,1,7-4[8:1],7,2-5[8:1],2,8-4[8:1],8,
{8}3,3,1,1,2,2,8-5[8:1],8,3-7[8:1],3,1b,,
{8}8,8,4,4,6,3,5,5,1,1,7,3,{16}8,1,2,3,4,5,6,7,{8}2,2,{8}8b-4[8:1],8b,,,,,
{8}3-8[8:1],3,4-7[8:1],4,1-5[8:1],1,8-6[8:1],8,2-4[8:1],2,5-1[8:1],5,{16}1,2,3,4,{8}8,8,4,4,{24}6b,5,4,3,2,1,8,7,6b/2b,{8},,,
{8}6-1[8:1],6,5-2[8:1],5,8-4[8:1],8,1-3[8:1],1,7-5[8:1],7,4-8[8:1],4,{16}8,7,6,5,{8}1,1,5,5,{24}3b,4,5,6,7,8,1,2,3b/7b,{8},,,
{8}2-7[8:1],2,6-3[8:1],6,{4}1>5[4:1],5<1[4:1],1>5[4:1],5,
{8}7-2[8:1],7,3-6[8:1],3,{4}8<4[4:1],4>8[4:1],8<4[4:1],4,
{16}3b,2,1,8,7,6,2b,1,8,7,6,5,1b,8,7,6,5,4,8b,7,6,5,4,2b,
1,2,1,2,1,2,8,1,8,1,8,1,{8}7b-4[8:1],7b,
