&title=T+ VS SHARK
&artist=t+pazolite
&first=1.21
&des=Biggy
&lv_5=14
&des_5=Biggy
&inote_5=
(200){4}8qq3[4:5],,,,,,,4,
{1}4qq7[4:5],
,7p5[4:5],
{4},,,2,
{1}2q5[4:5],
7-4[4:1],
{16}4,6,4,6,4,6,4,6,4,6,4,6,4,6,4,6-3[4:1],
{1}4v5[4:1],
{16}5,3,5,3,5,3,5,3,5,3,5,3,5,3,5,3-6[4:1],
{1}5v4[4:1],
{16}2,1,2,1,2,1,2,1,2,1,2,1,2,1,2,1V35[16:5],
{1}2v5[4:1],
{16}7,8,7,8,7,8,7,8,7,8,7,8,7,8,7,8V64[16:5],
{1}7v4[4:1],
{4}6x/3x,6/5,3/6,4/3,
7/4,6/5,5/2,{8}4/3,5/4,
{4}6/5,4/7,4/3,5/2,
6/5,4/7,3/4,5/2,
{8}3,3,5,5,7,7,1,1,
3,3,4,4,5,5,6,6,
{16}3,5,3,5,3,5,3,5,4,6,4,6,4-8[8:1],6,4,6,
{4}4bv2b[4:1]*v6b[4:1],{16},,,,,,,,3,5,4,6,
{4}1b-3[8:1],5h[8:1]/1-7[8:1],5h[8:1]/1-3[8:1],5h[8:1]/1-7[8:1],
5h[8:1]/1-3[8:1],5h[8:1]/1-7[8:1],5h[8:1]/1-3[8:1],1/5h[8:1],
5<1[4:1],1>5[4:1],5<1[4:1],1>5[4:1],
5<1[4:1],1>5[4:1],{2}5w1[8:1],
{8}3/7,4,5/6,7,4/8<5[8:1],3,2,1,
8-4[8:1],8,6-1[8:1],6,2-5[8:1],2,8,8,
7/4,3,5/2,6,7/4,3,{4}5/2qq8qq7-4[2:1],
,,,,4h[8:1]/8-6[8:1],
4h[8:1]/8-2[8:1],4h[8:1]/8-6[8:1],4h[8:1]/8-2[8:1],
4h[8:1]/8-6[8:1],4h[8:1]/8-2[8:1],4h[8:1]/8-6[8:1],8/4h[8:1],
4>8[4:1],8<4[4:1],4>8[4:1],8<4[4:1],
4>8[4:1],8<4[4:1],{2}4w8[8:1],
{8}2/6,3,4/5,6,{16}7,5,7,5,{8}8,8,
3/7,6,5/4,3,{16}2,4,2,4,{8}1,1,
{16}2,8,2,8,3,7,3,7,4,6,4,6,3,5,3,5,
{8}2,3,4/5,{16}6,5,6,5,{8}7h[8:1],4,3,
{4}5b/2bh[4:1],{8}4,4,{4}3>1[8:1],4/3,
{8}5,5,{4}5/4,6,6/5,
4/7h[4:1],{8}5,5,{4}8-4[8:1],8/5,
{8}5,5,{4}5,4/5,6/3,
{8}5b/C,5,5,5,3b/C,3,3,3,
7b/C,7,7,7,1b/C,1,1,1,
{16}7,6,5,4,3,2,1,8,{32}7x,6x,5x,4x,3x,2x,1x,8x,7x,6x,5x,4x,3x,2x,1x,8x,
{4}7bx/Cf,,,7-2[4:1]/6-3[4:1],
{8},,,,4bxh[2:1],Cf/B4/B5/B3,C/B5/B4/B3,C/B5/B4/B3,
6xh[2:1],Cf/B6/B7/B5,C/B5/B6/B7,C/B5/B6/B7,3bxh[2:1],Cf/B3/B4/B2,C/B4/B3/B2,C/B4/B3/B2,
5xh[2:1],Cf/B5/B6/B4,C/B6/B5/B4,C/B6/B5/B4,4bxh[2:1],Cf/B4/B5/B3,C/B5/B4/B3,C/B5/B4/B3,
{4}8h[2:1],1-5-1[4:1],{2}1,
{32}1bx/8bx,2b/7b,3b/6b,4b/5b,,,,,,,,,,,,,{8}8bh[2:1],B3/B4/B5/Cf,C/B5/B4/B3,C/B5/B4/B3,
1h[2:1],B6/B5/B4/Cf,C/B4/B5/B6,C/B4/B5/B6,7bh[2:1],B4/B3/B2/Cf,C/B2/B3/B4,C/B2/B3/B4,
2h[2:1],B5/B6/B7/Cf,C/B7/B6/B5,C/B7/B6/B5,8bh[2:1],B3/B4/B5/Cf,C/B5/B4/B3,C/B5/B4/B3,
{4}1bxq3<8b[4:7],,,Ch[4:5],
,,,,,1-6-8b[4:1]*-4-2b[4:1],
{2}Cf,
{8}7x/3x,1b/2b,1b/2b,1b/2b,3x/7x,6b/5b,6b/5b,6b/5b,
{4}3x-1[8:1]/7x-5[8:1],7-1[8:1]/3-5[8:1],7-3[8:1]/3-7[8:1],7/3,
{8}4/6-1[8:1],4,4/6,4,5b/2-7[8:1],5,5/2,5,
4/6-1[8:1],4,4/6,4,5b/2-7[8:1],5bh[8:1],{4}2,
{8}5/3-8[8:1],5,5/3,5,4b/7-2[8:1],4,4/7,4,
5/3-8[8:1],5,5/3,5,4b/7-2[8:1],4bh[8:1],{4}7,
{8}3/5,{16}6,5,{8}7,{16}3,4,{8}2-5[8:1],7,2/8-4[8:1],1,
8/4,{16}3,5,{8}1-7[8:1],4,1-3[8:1],6,1,5,
6/4,{16}3,4,{8}2,{16}6,5,{8}7-4[8:1],2,7/1-5[8:1],8,
1/5,{16}6,4,{8}8-2[8:1],5,8-6[8:1],3,8,4,
{16}3,5,3,5,2,4,{8}1,{16}6,4,6,4,7,5,{8}8,
{16}3,5,3,5,2,4,{8}1,{16}6,4,6,4,7,5,{8}8,
{16}4,8,3,7,2,6,1,5,8,4,1,5,2,6,3,7,
{4}4x>8b[8:1]/8x<4b[8:1],{32}E4/E8,E3/E7,E2/E6,E1/E5,,,,,,,,,,,,,,,,,,1bx/5bx,2bx/6bx,3bx/7bx,
{1}8bx/4bx<4b[4:13],
,6h[2:3],
,5-2-7-4b[4:13],
,1h[2:3],
{2},,6h[4:1]/2-5[8:1],
{4}7,7h[8:3],
{8}8,8h[8:3],,,5,1,6,2,
{2}3h[4:1]/7-4[8:1],{4}2,2h[8:3],
{8}1,1h[8:3],,,4,8,3,7,
{4}2-5[8:1],6,7-4[8:1],2,
1-5[8:1],7,8-4[8:1],2<2[2:3]*>2[2:3],
{1}2,
,{24}5,
6,{12}7h[3:5],,{4}3-8-6[4:1],,,,6,
5,4,
{24}4,3,{12}2h[12:17],,{4}6-1-3[4:1],,,,3,
4,5,
{8}5/3,2,6/4,7,4/3,2,6/5,7,
3/5,2,4/6,7,4/3,2,6/5,7,
{16}3/4,5,6,7,8/1,2,3,4,5/6,7,8,1,2,3,4,5,
{2}6<1[8:1]/2>5[8:1],{4}6x-3[8:1]/2x-7[8:1],6b/2b,
1w5[8:1],1,3/7-3[8:1],{8}7/2-4[8:1],1,
{4}2/5x-1[8:1],5/8-6[8:1],8-4[8:1]/2-4[8:1],8/2-6[8:1],
2/8x-5[8:1]*-3[8:1],8,6/2-6[8:1],{8}2/7-4[8:1],7,
{16}7,,,2-5[8:1],,,{8}8,{2}8-4[8:1],
{8}2b,2b,4b,4b,6b,6b,8b,8b,
1b/2b,3b/4b,{16}5bx/6bx,6bx/5bx,,,{8}7b/8b,{16}1bx/2bx,1bx/2bx,,,{8}3b/4b,
{16}6b,5b,6b,5b,7b,4b,7b,4b,8b,3b,8b,3b,1-5b[8:1],2b,1b,2b,
{4}1w5b[4:1],,,2b-6[8:1],
{8}2/8w4[8:1],8,{4}8,6/2-6[8:1],{8}2/7-5[8:1],8,
{4}7/4-8[8:1],4x/1-3[8:1],1/7-5[8:1],{8}7/4-8[8:1],3,
{4}4x/2v7[8:1]*v5[8:1],2,8/4,{8}4/7-4[8:1],7/3,
{16}7/2,,,2-5[8:1],,,{8}8,{2}8-4[8:1],
{16}3b,5b,{8}2b,2b,{16}6b,4b,{8}7b,7b,{16}3bxh[32:1],4bxh[32:1],5bxh[32:1],6bxh[32:1],
4bx,5bx,4b,5b,4b,5b,4b,5b,4b,5b,4b,5b,4b,5b,4b,5b-8[16:21],
{1}4b-1b[4:5],
{8},,,,,,,,2b/8b,
{16}3,5,{8}4,{16}6,5,7-4[8:1],,,1,{8}7,2,
5/3,{16}6,4,{8}7,{16}3,5,2-5[8:1],,,8,{8}2,7,
6/4,{16}3,4,{8}2,{16}7,8,6-1[8:1],,,4,{8}6,3,
8/2,{16}3,3,{8}4,{16}6,6,{8}5,{16}3,4/2,,6,{8}5/7,
3,{16}6,4,{8}5,{16}3,4,2-5[8:1],,,8,{8}2,7,
4/6,{16}3,5,{8}2,{16}6,4,7-4[8:1],,,1,{8}7,2,
3/5,{16}6,5,{8}7,{16}2,1,3-8[8:1],,,5,{8}3,6,
{24}7xh,E7,B6,B5,,,1xh,E2,B2,B3,{48},,,,{16}8,1,7,2,6,3,5,4,
{8}6b,{16}3,4,{8}2,{16}6,5,7-4[8:1],,,1,{8}7,2,
3/5,{16}6,5,{8}7,{16}3,4,2-5[8:1],,,8,{8}2,7,
6/4,{16}3,4,{8}2,{16}7,8,6-1[8:1],,,4,{8}6,3,
8/2,{16}3,3,{8}4,{16}6,6,{8}5,{16}3,2/4,,6,{8}7/5,
4b,{16}6,4,7,3,8,2,{8}1-5[8:1],8,{4}7,
{16}6,6h[8:1],,4,{8}4h[8:1],{16}2,2h[8:1],,8,{8}8h[16:3],{16},6,{8}6h[8:1],
5,5,6/4,6/4,3/7,3/7,2/8,2/8,
{16}1,1,1,1,1,1,1,1,1,1,1,1,1w5b[8:1],1,1,1,
{64}1b<1b[4:29],Cf,{1},,,,,,,{4},,,{16},,,{32},{1}Cf/D4/D5/D6/D7/D8/D1/B1/B3/B5/B7/D3/A8/A4/A6/A1/A3/A7/A5/B8/B2/B4/B6/A2/D2,
E
