&title=YOUNITHM
&artist=大国奏音
&first=-0.022
&des=Kondou ~Above & Beyond~
&clock_count=4
&wholebpm=130.000
&lv_5=14+
&des_5=
&inote_5=(130)
{16},,,,
,,,,
,,,,
,,,,
{16}4>5[8:28],,,,
,,,,
,,,,
,,,,
{16},,,,
,,,,
,,,,
,,,,
{16},,,,
,,,,
,,,,
,,,,
{16},,,,
,,,,
,,,,
,,,,
{16}3qq4[8:12],,,,
,,,,
,,,,
,,,,
{16},,,,
,,,,
5,,,,
,,,,
{16}6pp5[8:12],,,,
,,,,
,,,,
,,,,
{16}4h[8:8],,,,
,,,,
,,,,
,,,,
{16}E1f/B8/B1,,,,
3,,,,
4,,,,
5,,,,
{16}6h[8:2],,,,
5,,5h[8:2],,
,,4h[8:2],,
,,3,,
{16}3-8V25[8:6],,,,
,,,,
,,,,
,,,,
{16}6,,7,,
8,,1-6[8:2],,
,,2,,
3,,4,,
{16}4,,,,
6,,,,
5,,,,
4,,,,
{16}3h[8:2],,,,
4,,4h[8:2],,
,,5h[8:2],,
,,7,,
{16}6<4[8:3]/4,,,,
,,,,
5-7-1-3[8:3],,,,
,,,,
{16}4q5[8:3],,,,
,,,,
1^6[8:2],,,,
,,,,
{16}D5hf[384:1],,,,
,,,,
,,,,
,,,,
{16},,,,
,,,,
,,,,
,,,,
{16}4h[8:1],,5h[8:1],,
4h[8:1],,5h[8:1],,
3h[8:1],,6h[8:1],,
3h[8:1],,6h[8:1],,
{16}2h[16:1],,7h[16:1],,
1h[16:1],,8h[16:1],,
{32}1,2,3,4,5,6,7,8,
1,2,3,4,5,6,7,8,
(260)
{16}1b,,,,
7-4[8:1],,,,
3,,,,
1-6[8:1],,,,
{16}7,,,,
8-3[8:1],,,,
3,,,,
5>7[8:3],,,,
{16}6,,,,
6,,,,
6,,5,,
4,,3,,
{16}7,,E2,,
E6,,E4,,
E8,,,,
7x/1V35[8:2],,,,
{16}5>1[8:2],,,,
1,,,,
7,,7-3[8:1],,
,,3,,
{16},,5,,
5h[8:2],,,,
6,,4/6h[8:2],,
,,2,,
{16}3,4,3,4,
3h[8:1],,,,
6,5,6,5,
6h[8:1],,,,
{16}1,2,3,4,
5,6,7,8,
1,2,3,4,
7,6,5,4,
{16}8b,,,,
1^4[8:1],,,,
6,,,,
8^5[8:1],,,,
{16}3,,,,
1-6[8:1],,,,
4-8[8:1],,,,
2>8[8:3],,,,
{16}1,,,,
1,,,,
1,,2,,
8,,7,,
{16}6/1,,E1,,
E7,,E3,,
E5,,1,,
5,,3,,
{16}6,5,6,5,
7h[8:1],,,,
4,5,4,5,
3h[8:1],,,,
{16}7,5,7,5,
8h[8:1],,,,
2,4,2,4,
1h[8:1],,,,
{16}7,,7,,
5,,5,,
3,,3,,
1,,1,,
{16}8,7,6,5,
8,7,6,5,
1,2,3,4,
1,2,3,4,
{16}8b/5b,,,,
6/2,,62,,
1-4[8:1],,4,,
1<6[8:1],,,,
{16}1,,,,
3,2,1,8,
4-7[8:1],,,,
34,,,,
{16}1^4[8:1],,8,,
1,,6,,
7-3[8:1],,8,,
7,,2,,
{16}1-5[8:1],,1,,
6-1[8:1],,6,,
2,,2,,
3,,3,,
{16}4h[8:2]/2,,,,
8,7,6,5,
1,8,7,6,
5,4,3,2,
{16}1b-6[8:1],,,,
1,,4-7[8:1]*-1[8:1],,
,,4,,
,,2x,,
{16}2-6[8:1]/8,,,,
2,,5^8[8:1]*^2[8:1],,
,,5,,
,,7x,,
{16}7/1h[8:2],,,,
4h[8:2],,,,
{12}E3,E2,E1,
{16}E8,,,,
{16}1b/5b,,6,,
7-4[8:1],,7,,
8,,1,,
2-5[8:1],,2,,
{16}1,,8,,
7^5[8:1],,4-1[8:1],,
7x,,4x,,
8b,,,,
{16}6b/4b,,3,,
2-5[8:1],,2,,
1,,8,,
7-4[8:1],,7,,
{16}8,,1,,
2^4[8:1],,5-8[8:1],,
2x,,5x,,
1b,,1,,
{16}2b/6b,,2,3,
4,,7,,
7,6,5,,
1,,1,,
{16}24,,4,,
35,,3,,
{24}7,8,1,2,3,4,
5,6,7,8,1,2,
{16}3b-8b[8:1],,,,
4,,4b-7b[8:1],,
,,1b/4,,
,,2,,
{16}2b,3,4,5,
7b,8,1,2,
5b,6,7,8,
4b,5,6,7,
{16}8x/2x,,8x/2x,,
,,3x/4x,,
,,3x/4x,,
,,6x/1x,,
{12}2,3,4,
5,6,7,
1,2,3,
4,5,6,
{16}1x/7x,,1x/7x,,
,,6x/5x,,
,,6x/5x,,
,,3x/8x,,
{12}7,6,5,
4,3,2,
8,7,6,
5,4,3,
{16}8x/2x,,8x/2x,,
,,3x/4x,,
,,3x/4x,,
,,8x/2x,,
{16}6x/5x,,6x/5x,,
,,7x/1x,,
,,7x/1x,,
,,3x/4x,,
{12}2,,2,
,2,,
{16}5/3h[12:4],,,,
{12},8,,
{12}71,,6,
,6,,
73,,4,
,4,,
{24}3x/8x,7,6,5,,,
{12},2,,
{24}2x/7x,6,5,4,,,
{12},1,,
{24}1x/6x,5,4,,,,
,,1x/6x,5,4,,
,,,,2x,3,
4,,8x,7,6,,
{24}1x,,,,1,2,
3,4,6x,,,,
8x,,,,8,7,
6,5,3x,,,,
{16}2xh[24:8]/1x,,,,
{12},6,,
{16}7xh[24:8]/8x,,,,
{12},3,,
{16}1x/2x,,,,
{12},1x/2x,,
{24}2x,3,4,5,8x,7,
6,5,2x,,,,
{16}8b,,,,
{12},7x/8x,,
{24}7x,6,5,4,1x,2,
3,4,7x,,,,
{12}1b,6x,2b,
6x,1b,6x,
8b,5x,7b,
5x,8b,5x,
{24}1b,2,3,4,5,6,
7,6,5,4,3,2,
8b,7,6,5,4,3,
1s5b[8:1],8,7,6,5,4,
{16}1x^2^3^4^5^6^7^8[8:26],,,,
,,,,
,,,,
,,,,
{16},,,,
,,,,
,,,,
,,,,
{16},,,,
,,,,
,,,,
,,,,
{16},,,,
,,,,
,,,,
,,,,
{16}E5h[8:22],,,,
,,,,
E2,,,,
,,,,
{16}E1,,,,
,,,,
E8,,,,
,,,,
{16}E7,,,,
,,,,
6,,,,
6h[8:4],,,,
{16},,,,
5h[8:4],,,,
,,,,
4,,,,
{16}1x^3^6^8[8:26],,,,
,,,,
,,,,
,,,,
{16},,,,
,,,,
,,,,
,,,,
{16},,,,
,,,,
,,,,
,,,,
{16},,,,
,,,,
,,,,
,,,,
{16}E3h[8:28],,,,
,,,,
,,,,
,,,,
{16}E7h[8:20],,,,
,,,,
,,,,
,,,,
{16}E4h[8:12],,,,
,,,,
,,,,
,,,,
{16}E6h[8:4],,,,
,,,,
,,,,
,,,,
{16}8bz4[8:18]/1bs5[8:18],,,,
,,,,
,,,,
,,,,
{16},,,,
,,,,
,,,,
,,,,
{16},,,,
,,,,
,,,,
,,,,
{16}5w1[8:3]/4w8[8:3],,,,
,,,,
,,,,
,,,,
{16}6bh[8:4]/B2/E3f/B3,,,,
,,,,
,,,,
,,,,
{16}4bh[8:4]/B8/E1f/B1,,,,
,,,,
,,,,
,,,,
{16}2b/B7/E7f/B6,,,,
,,,,
8b/B5/E5f/B4,,,,
,,,,
{16}6b/1b,,1,,
72,,7,,
8/3,7,6,5,
8,1,2,3,
{16}1bx-6[8:1]/4b,,,,
5,,5-2[8:1],,
,,6,,
7,,8,,
{16}1^6[8:1],,2v5[8:1],,
1,,2,,
7x-4[8:1],,8,,
7,,1,,
{16}2b,,2,4,
3,,3-5[8:1]/6-2[8:1],,
,,3x/6x,,
,,8,,
{16}8,7,6,5,
1,2,3,4,
6,5,6,5,
6,5,6,5,
{16}7b-3[8:1],,,,
4qq5[8:3],,,,
1,,8,,
7,,6,,
{16}6h[8:2],,,,
{12}5,64,35,
{16}2q6[8:1]/4,,,,
8-4[8:1],,,,
{16}8/4>6[8:2],,,,
1,,,,
3,,3,,
42,,5,,
{16}6-4[8:1]/4^1[8:1],,,,
,,,,
7-4[8:1]/8-4[8:1],,,,
78,,,,
{16}1b/2b-5[8:1],,,,
8^5[8:1]/2,,,,
4,3,2,1,
8,,8,,
{16}1b/7b-3[8:1],,,,
1^4[8:1]/7,,,,
5,6,7,8,
1,,1,,
{16}8b/2b,,2,,
4b/3b,,3,,
1b/7b,,7,,
5b/6b,,6,,
{16}4,5,4,5,
3,4,3,4,
2,5,2,5,
1,6,1,6,
{16}8b,,,,
8pp3[8:4],,,,
E5f,,,,
,,,,
{16}7,,,,
7p4[8:4],,,,
Cf,,,,
,,,,
{16}1,,,,
1>8[8:4],,,,
E1f,,,,
,,,,
{16}5,,,,
5,,,,
E5/Cf/E1,,,,
,,,,
{16}1b/5b,,1,,
1,,1,,
2/E8/B8,,2,,
2,,2,,
{16}3/E6/B5,,3,,
3,,3,,
4-1[8:1],,5,,
6,,,,
{16}8b/2bx,,8,,
8,,8,,
7/E2/B1,,7,,
7,,7,,
{16}6/E4/B4,,6,,
6,,6,,
5-8[8:1],,4,,
3,,,,
{16}1,2,3,4,
6,7,8,1,
4-7[8:1],3,2,1,
4b,,,,
{16}8,1,2,3,
5,6,7,8,
5-8[8:1],4,3,2,
5b,,,,
{16}1,2,3,4,
15,6,7,8,
1v6[8:1]/5-2[8:1],6,7,8,
1b/5b,,,,
{16}7,8,7,8,
7,8,7,8,
6h[32:1],1h[32:1],5h[32:1],2h[32:1],
4h[32:1],3h[32:1],4h[32:1],3h[32:1],
{16}5b-1[8:1],,,,
6-1[8:1],,,,
2,,2,,
2x,,,,
{16}5/4-8[8:1],,,,
3-8[8:1],,,,
7,,7,,
7x,,,,
{16}5-1[8:1]/4,,,,
6^1[8:1],,,,
3,,3,,
3x,,,,
{16}4-8[8:1]/5,,,,
3^8[8:1],,,,
6,,6,,
6x,,,,
{16}4/5-1[8:1],,,,
6-1[8:1]/5,,,,
2,,2,,
2x/8x,,,,
{16}5/4-8[8:1],,,,
3-8[8:1]/4,,,,
7,,7,,
7x/1x,,,,
{16}5-1[8:1]/4,,,,
6^1[8:1]/5,,,,
3,,3,,
3x/7x,,,,
{16}4-8[8:1]/5,,,,
3^8[8:1]/4,,,,
6,,6,,
6x/2x,,,,
{16}7b-4[8:1]/3b,,,,
8/7-3[8:1],,,,
7/1,,1,,
1x,,,,
{16}2-5[8:1]/6,,,,
1/2-6[8:1],,,,
2/8,,8,,
8x,,,,
{16}7-4[8:1]/3,,,,
8/7-3[8:1],,,,
7/1,,1,,
2x/8x,,,,
{16}2-5[8:1]/6,,,,
1/2-6[8:1],,,,
2/8,,8,,
7x/1x,,,,
{16}34,,34,,
2x,,8x,,
47,,47,,
3b/8b,,,,
{16}65,,65,,
7x,,1x,,
52,,52,,
6b/1b,,,,
{16}34,,34,,
54,,54,,
65,,65,,
7b/4b,,,,
{16}1,8,1,8,
1,8,1,8,
2b,8,2,8,
2,8,2,8,
{16}3b,,7b,,
5b-2[8:1],,,,
5/7b-4b[8:1],,,,
7/8b^3[8:1],,,,
{16}8b^5b[8:1],,,,
8b-4[8:1],,,,
8bw4b[8:1],,,,
8b,,,,
{16}6bx,,2,,
4b-7[8:1],,,,
4/2b-5b[8:1],,,,
2/1b^6[8:1],,,,
{16}1b^4b[8:1],,,,
1b-5[8:1],,,,
1bw5b[8:1],,,,
1b,,,,
{16}3bx/7bx,,3/7,,
2b/6b-1[8:1],,,,
5b-2b[8:1]/6,,,,
5/7bx-4[8:1],,,,
{16}7/8b-3b[8:1],,,,
7b/8^5[8:1],,,,
8b,,,,
4b/3,,3b/4,,
{16}2b-6[8:1]/6,,2,,
1b,,1,,
8b-5b[8:1]/5,,8,,
4b,,4,,
{16}3b-8[8:1],,4b-7b[8:1],,
3,,4,
,
2bx-6[8:1],,6bx,,
2bx,,7,,
{16}7b,,2b,
6,
4,,8bh[8:1],,
2b,6,4,,
8bh[8:1],,2b,6,
{16}4,,7b,3,
5,,1b,,
7b,6,7,,
2b,3,2,,
{16}1bh[8:1],,7b,3,
5,,1bh[8:1],,
7b,3,5,,
1bh[8:1],,7b,3,
{16}5,,2b,6,
4,,8b,,
2b,6,,6b,
5,,5b/7b,,
{16}7,8,7,8,
7,8,7,8,
7,6,5,4,
1,2,3,4,
{16}8b,5,8,5,
8,5,8,5,
1,8,7,6,
4,3,2,1,
{24}7b,6,5,4,3,2,
1,8,7,6,5,4,
8b,1,2,3,4,5,
6,7,8,1,2,3,
{32}8b,7,6,5,4,3,2,1,
8,7,6,5,4,3,2,1,
8b/4b,5,6,7,8,1,2,3,
4,5,6,7,8,1,2,3,
(130)
{16}4b/Chf[384:1]/B7/B6/B2/B3,,,,
,,,,
,,,,
,,,,
{16},,,,
,,,,
4h[8:4],,,,
,,,,
{16}5h[8:8],,,,
,,,,
,,,,
,,,,
{16}3h[8:8],,,,
,,,,
,,,,
,,,,
{16}5h[8:2],,4,,
3,,5,,
4,,3,,
5,,4,,
{16}3,,5,,
4,,3,,
6h[8:2],,,,
5,,,,
{16}4h[8:2],,5,,
6,,4,,
5,,6,,
4,,5,,
{16}3h[8:2],,4,,
5,,6h[8:2],,
,,8,,
6pp2[8:16],,4,,
{16}2bpp6b[8:14],,,,
,,,,
,,,,
,,,,
{16},,
{8}
