&title=Ré:Ré
&artist=モリモリあつし vs. uma
&first=0.05
&des=Re:35AN 4+
&des_5=Re:35AN
&lv_5=14+
&inote_5=(222.02){4},,4b/6b,3xh[4:1],
4x<7[2:1],2xh[4:3],,,8b,
7xh[4:1],2>5[2:1],8h[4:3],
,,6b,5/6h[4:1],
4>2[4:1],7h[2:1],,1,
{48}8bh,1,,,,,,,,,,,{4}7qq4[4:3],8h,1h,
{2}2h,{48}3bh,4,,,,,,,,,,,{4}2<7[4:3],
3,4,5,6<1[4:3],
5h,4h,3h,2>5[4:3],
1h[384:1],8h[64:1],7h[64:1],6V42[4:3],
7h[96:1],8h[96:1],1h[96:1],1x-5[1:1],
8bh,3h,6h,2h,
8h,1xh[4:1],{32}7b,6/2,5/3,4,,,,,{8}2,{16}8,1,
8,1,8,1,{4}7<4[8:1],7/3>8[8:1],3,
7h[4:1],{8}5,6,4/7,3,{4}6/2-8[8:1],
5,{8}7-5[8:1],8,{4}7/1,{16}3,4,3,4,
{8}2<8[8:1],2,{4}7x<4[8:1],{16}E1,E2,E3,E4,A5,A6,A7,A8,
{4}1bx,{16}6,5,6,5,{8}7,7,{4}3-1[8:1]/8x-4[8:1],
3b/8b,{8}6xh[8:1],5,{4}4/7<4[8:1],{16}3,2,1,8,
7,6,5,4,{4}3/8-6[8:1],5-1[8:1],5x,
{16}7,8,7,8,{8}6,6,2h[8:1],4,{16}1,8,1,8,
{8}2,2,6h[8:1],5,{4}7/4b>1[8:1],{16}8,7,6,5,
{8}4/8,1,{4}2/5b<8[8:1],{16}2x,3x,4x,5x,6x,7x,8x,1x,
{4}4bx/2x,{16}7,5,7,5,7,5,7,5,{4}6b-2[8:1],
{1}Cf/6b>6[2:3]*V82V46[2:3],
{4},,,,3h[4:1],
{16}5,,,3,{4}4,{48}2h[4:1],5,,,,,,,,,,,{4}6h[4:1],
5,4h[4:1],5,
6h[4:1],5>3[4:1],{16},,,,7,,,1,
{4}8h[4:1],{16}2,3,4,5,{4}8,{48}5h[4:1],6,,,,,,,,,,,{16}7,
,,5,{4}6h[4:1],4h[4:1],8h[4:1],
{16}2,,,7,1x,8x,1x,8x,1x,8x,1x,8x,2x,6x,3x,5x,
{4}4b-8[8:1],4/7-5[8:1],2-5[8:1]/7-3[8:1],7bx/2-8[8:1],
2b,7b-5[8:1]/1x-5[8:1],1b/7-3[8:1],7b,
2bh[4:1],{16}1,2,8,3,7,4,{8}6,3/5,2,
{12}1,1,6,8,8,4,2,2,7,5,5,6,
4,4,5,3,3,7x,{4}6x/2x,{8}3,6,
{16}4,5,4,5,{4}3>7<5[1:1],,,,,8b,
3h[4:1],
B6,7h[4:1],B3,4xh[4:1],
E8,6xh[4:1],B2,1xh[4:1],
8,7h[4:1],5,3h[4:1],
4,6h[4:1],8,2h[4:1],
{16}4,3,4,3,{8}5,5,2b-5[8:1],2,7,7,
1,1,{16}8,7,6,5,2,3,4,5,{8}7<4[8:1],8,
7,1,8,2,{12}7,5,6,3,4,2,
{4}8b<5[8:1]*p4[8:1],8>3[8:1],8,{16}6,5,6,5,
{8}7,4,3>1[8:1],5,3,7,8,6,
{16}1,8,1,8,{4}2h[4:1],{8}7-5[8:1],7,3,3,
4-8[8:1],4,6,6,7-4[8:1],7,1,1,
2-4[8:1],2,6,6,5-1[8:1],5,3,3,
2-4[8:1],2,8,8,{16}5x,6,5,6,5,6,5,6,
5,6,5,6,4,7,4,7,3,8,3,8,2,1,2,1,
{4}3h[4:1],{16}8,1,2,3,4,5,6,7,{24}1,8,1,8,1,8,
1,8,1,8,1,8,{32}1,E1,E8,E7,E6,E5,E4,E3,{8}7bx,7bxv6>5>4[4:1],,,,,2b,
2b<1<8v3[4:1],{16},,,,E4,E5,E6,E7,
{4}7x,2/B8f,6h[4:1]/E4f,{8}1,1,
{16}1,5,1,5,2,6,3,7,{4}4xh[4:1],8p4[8:1],
3,{16}2,1,2,1,{4}3<6[8:1],8xh,
{16}E8,E7,E6,E5,E4,E3,E2,E1,{8}3,4,{4}2h[4:1],
8x<6[8:1],{8}8,4,5p1[8:1],6,5,7,
8p4[8:1],1,8,2,3>1[8:1],4,{4}3pp7[2:1],
{2}B3f/E4/A3,{8}1b,1,{4}6b/E2f/B1/E1,
2b/E6f/A5/B5,8b/4b,{8}6,5/7h[8:1],{16}8,1,2,3,
{4}4/6h[4:1],{8}3,4/2h[8:1],{16}1,8,7,6,{4}5/3,
{2}1bh[4:1]/6bh[4:1],{8}3/7,4,{4}2v5[8:1]/6v1[8:1],
{2}2/Cf/6<4[2:5],{4}4x,4,
5,5,6,6,
7,7,8,8,
{16}8,1,{8}8,{16}3,4,{8}3,{16}6,5,{8}6,{16}3,4,{8}2,
{16}6,5,{8}7,{16}2,3,{8}4,{16}8,7,{8}6,{16}4,3,2,1,
{4}8xw4[8:1],Cf/B5/B3/B4/8b<1[4:3]*>7[4:3],,,,,{2}E8/A8,
{16}E3,B3,B5,E6,,,,E2,{4}B1,A5/D5,
A3,{8}E8,B4,E6,B2,{4}C,
{8},,A3/E3,D7/A6,{4}A1/D2,{16}E7,B6,{8}B4,
B2,E8,{4}C,{16}E3,B3,{8}B5,{16}E8,B8,{8}B2,
{16}A3,,,A6,{4}E6,4,2/6,
3/7,{8}5,4,{4}6h[4:1],5,
7h[4:1],3,2h[4:1],8,
{8}1,7,1,8,2,6,{4}1h[4:1],
5,{8}3,4,{4}2,{16}6,5,{8}6,
4x,5,{4}3xh[4:1],{16}6,5,4,3,2,1,8,7,
{4}6b/E2f/C/B3,{8}7/8,1,{4}6xh[4:1],{16}3,4,3,4,
3,4,3,4,3,2,1,8,{8}6b,7/4,{16}3,4,{8}3,
{16}6,5,{8}6,3b,2/5,{16}7,8,{8}7,{16}2,1,{8}2,
3/8,6,{4}7b-5[8:1]/4-8[8:1],4b/7-3[8:1],7b,
1b-5[8:1]*-4[8:1],1b,{16}6x,7,8,1,5,4,3,2,
8,7,6,5,2,3,4,5,7,8,1,2,3,4,5,6,
{8}2,{16}E7,B6,{8}B5,B3,B8,E2,{4}C,
{16}6,5,{8}6,7-4[8:1],7,3b,3,2-5[8:1],2,
8-4[8:1],8,1-3[8:1],1,6,6,7,7,
{16}8,4,8,4,8,4,8,4,7,3,6,2,5bx-1[16:1],,,3b,
,,{8}8bx,{12}2,3,4,{4}7<4[2:1],8,
1,2<8[8:1],3,{8}6,5,
{4}7h[4:1],{8}4,6,3,7,{4}5/2,
4/7-3[8:1],2,8/1,{16}6,5,{8}6,
3,4,{4}2h[4:1],{16}8,1,{8}8,5,6,
{4}4/7h[4:1],3h[4:1],{8}5,4,6,6,
5,7,3,4,{16}2/6,3,4,5,6,7,8,1,
2,3,4,5,8,7,6,5,4,3,2,1,8z4[4:1]*v6[4:1],7,6,5,
,,,,,,,,{8}3b/7b,4,{4}6/2-5[8:1],
{8}8,,,1b,{12}7,6,5,1,2,3,
6,7,8,2,4,3,7,5,6,1,8,2,
7,6,5,8,7,6,5,4,3,8,5,6,
3,4,2,8,1,7,{16}2,3,4,5,8,7,6,5,
3,2,1,8,{12}6,5,7,3,4,2,8,1,7,
{16}2,3,4,5,7,6,5,4,3,2,1,8,3,7,3,7,
2,6,2,6,{4}1xh[4:1],{16}5,1,5,1,6,2,6,2,
7,3,7,3,8x,1,2,3,4,5,6,7,4x,3,2,1,
7,8,7,8,6,1,6,1,5,2,5,2,4x,3,2,1,
8,7,6,5,1x,2,3,4,{8}6,6,5-2[8:1],5,
7,7,8-4[8:1],8,3,3,2>5[8:1],2,
6,6,7,7,1-5[8:1],8,1,7,
6<1[8:1],4,{4}6x,{8}2b,2,2/4,2,
2/5,2,6/2,6,6/8,6,4/6,6,
2/6,5,{16}3,4,{8}3,{16}6,5,{8}6,{16}7,3,7,3,
8,4,8,4,1,5,1,5,{24}8x,7,6,5,4,3,2/8x,7,6,5,4,3,
2/8x,7,6,5,4,3,8x/2,7,6,5,4,3,2/8x,7,6,5,4,3,2/8x-4[8:1],7,6,5,4,3,
{1}8x/2x,
E
