&title=Lapis
&artist=SHIKI
&first=0.49
&lv_5=14
&des_5=M1KO
&inote_5=
(146){16}5h[16:3],,,3h[16:3],,,{8}6h[16:3],{16},4h[16:3],,,{8}5,4b/5b,
{16}4h[16:3],,,6h[16:3],,,{8}3h[16:3],{16},5h[16:3],,,{8}4,5b/4b,
{16}5h[16:3],,,7h[16:3],,,{8}1h[16:3],{16},3h[16:3],,,{8}6,4b/6b,
{16}4h[16:3],,,2h[16:3],,,{8}8h[16:3],{16},6h[16:3],,,{8}4,5b/3b,
{16}2h[16:3],,,4h[16:3],,,{8}6h[16:3],{16},8h[16:3],,,{8}1,2b/8b,
{16}8h[16:3],,,6h[16:3],,,{8}4h[16:3],{16},2h[16:3],,,{8}8,7b/1b,
{16}1h[16:3],,,7h[16:3],,,{8}3h[16:3],{16},5h[16:3],,,{8}4,4b/6b,
{16}6h[16:3],,,2h[16:3],,,{8}8h[16:3],{16},4h[16:3],,,{8}5,5,
{16}3-8[8:1],6,,6,{8}3,7b,{16}1-5[8:1],8,,8,{8}1,7b,
{16}7v4[8:1],2,,2,{8}7,3b,{16}6-2[8:1],4,,4,{8}6,3b,
{16}1,4,8,4,7,4,6,4,5,3,5,2,5,1,{8}5,
{16}2,6,2,6,3,7,3,7,{4}4-1[8:1]/8-4[8:1],4b/8b,
{16}8-4[8:1],1,2,3,{8}4/8,2h[8:1],5,{24}4,5,3,{8}4,6b/2b,
{16}1-5[8:1],8,2,7,{8}1,7h[8:1],3,{24}5,4,6,{8}5,6b/4b,
{16}3,7,3,7,2,8,2,8,{8}1-5[12:1],7-3[12:1],1,7,
{16}2,4,3,5,4,6,5,7,8,6,1,5,2,4,{8}3h[8:1],
5<8[8:1],4,3/5,2>5[8:1],1,8/2,7p4[16:3],6,
{4}7/5,{8}1-4[8:1],5,7/1-6[8:1],5,3/1,5,
1>4[8:1],8,7/1,6<1[8:1],5,4/6,3<6[8:1],2,
3/1,8,7<4[8:1],3,7>2[8:1],3,7-3[8:1],3,
7,8,7/1-5[8:1],2,1/6-3[8:1],7,6/2-7[8:1],1,
5-1[8:1],6,5/3-8[8:1],4,3/5,6,{4}7/1q4[4:3],
6h[8:1],5h[8:1],4-7[4:1],7-2[4:1],
{8}2-4-6[8:3],,,6-8-2[8:3],,,{4}2-4[8:1],
{8}7<4[8:1],8,1/7,2<7[8:1],3,4/2,5p3[16:3],6,
{4}5/7,{8}8-5[8:1],4,2/8-3[8:1],4,6/8,4,
8<5[8:1],1,2/8,3>8[8:1],4,5/3,6>3[8:1],7,
6/8,1,2>5[8:1],6,2<7[8:1],6,2-6[8:1],6,
2,1,8<5[8:1],7,8/3-6[8:1],2,3/8-4[8:1],7,
8/1-5[8:1],2,1/7-3[8:1],8,7/1>4[8:1],2,{4}1/6h[4:1],
2>6[4:1],6<2[4:1],{2}2>4[8:1],
{8}7/5,6/4,5/3,4/2,{16}5,3,8,6,7,1,4,2,
{2}3h[4:3]/5-7[8:1],8-4[8:1],
2h[4:3]/6-8[8:1],1-5[8:1],
1h[4:3]/4-8[8:1],7-5[8:1],
{8}2h[4:3]/4h[4:1],,,5h[4:1],,,{4}6h[4:1],
{2}4h[2:1],{12}6,5,7,3,4,2,
{8}7h[4:1]/5h[4:1],,,4h[4:1]/2h[4:1],,,{4}8h[4:1],
1-5[8:1],1/7h[4:1],4-2[8:1],6/4,
1pp4[8:3]/5pp8[8:3],{32},,,,,,,,,,,,,,,,3,2,1,8,7,6,5,4,
{4}3h[2:1],{8}5,6,7,3,8,2,
8h[#0.8219147],,1,2,3,8,3,7,
3h[8:3],6,6,6,6h[2:1],4,4,4,
4h[8:3],,,2h[8:3],,,{4}8h[4:1],
{2}6h[2:1],{12}5,4,3,5,4,3,
{8}2h[8:3],,,7h[8:3],,,{4}1h[4:1],
8-4[8:1],3h[4:1],5-7[8:1],4h[4:1],
8<4[4:1],4>8[4:1],8<4[4:1],4b,
{8}3h[8:1],{16}5,4,{8}5,6b/4b,4h[8:1],{16}6,5,{8}6,7b/5b,
{16}7,6,{8}7,{16}7,8,{8}7,7/1,7/2,7/3,7/4,
6h[8:1],{16}5,7,{8}5,8b/4b,3h[8:1],{16}4,2,{8}4,1b/5b,
{16}2,4,3,4,{8}2h[8:1],{16}7,5,6,5,{8}7h[8:1],{16}1,8,{8}1,
2/7,{16}6,5,{8}6,4/7,{12}3h[12:1],2h[12:1],1h[12:1],8h[12:1],7h[12:1],6h[12:1],
{8}5h[8:1],{16}3,4,{8}3,2/6,1h[8:1],{16}7,8,{8}7,2/8,
{16}1,8,1,7,1,8,1,6,1,8,1,5,1,8,1,4,
{32}1/7b,2,3,4,5,6,7,8,1/6b,2,3,4,5,6,7,8,{4}5b/1h[8:1],{16}4/2,4h[8:1],,3,
5,4,6,5,7,7h[8:1],,8,6,1,5,2,4,3h[8:1],,4b,
,3/5,{8}3/5,{16}2,4,3,5,4,6,5,7,1,1h[8:1],,,8,
2,7,3,6,6h[8:1],,,4,5,3,6,2,2h[8:1],8,8h[8:1],
,,2,3,{8}4-8[8:1],6-2[8:1],4b,6b,{16}1,1h[8:1],,4,
2,5,3,6,4,7,8,6,1,5,2,4,{8}3h[8:1],{16}4,4h[8:1],
,5,{8}5h[8:1],{12}6,6,6,1,1,1,{48}1,,,2,,,{16}3,4,
1,2,3,4,8,7,6,5,8,7,6,5,1,6,2,7,
3,8,2,7,{8}1-5[8:1],7-3[8:1],1b,7b,{16}1,1h[8:1],,8,
2,7,3,6,4,4h[8:1],,5,3,6,2,7,1,8h[8:1],,1b,
,2/8,{8}2/8,{16}3,1,2,8,1,7,8,6,5,5h[8:1],,,6,
4,5,3,4,4h[8:1],,1,8,2,7,3,6,6h[8:1],4,4h[8:1],
,,6,7,{8}8-4[8:1],2-6[8:1],8b,2b,{16}8,8h[8:1],,5,
7,4,6,3,5,2,4,1,8,2,7,3,{8}6h[8:1],{16}5,5h[8:1],
,4,{8}4h[8:1],{12}3,3,3,1,1,1,{24}8,7,6,2,3,4,
7,6,5,1,2,3,8,7,6,5,4,3,7,6,5,4,3,2,6,1,6,1,7,2,
7,2,8,3,8,3,{8}2-6[8:1],1-5[8:1],2b,1b,{16}2,4,3,6,
8,7,3,5,4,7,1,8,2,4,3,7,5,6,4,4h[8:1],
,2,{8}2h[8:1],{16}8,8h[8:1],,6,{4}6h[8:1],{16}4,5,4,5,
3,6,3,6,2,7,2,7,1,8,1,8,2,1,3,8,
4,7,5,6,8,7,1,6,2,5,3,4,2,8,2,8,
4,6,4,6,1,7,1,7,3,5,3,5,1,8,1,8,
2,7,2,7,3,6,3,6,4,5,4,5,3,4,3,5,
3,6,3,7,3,7,2,7,1,7,8,7,1,2,3,4,
2,3,4,5,3,4,5,6,4,5,6,7,3,4,3,4,
3,4,3,4,2,1,3,8,4,7,5,6,8,7,8,7,
8,7,4,5,4,5,4,5,2,1,2,1,5,7,5,7,
5,7,5,7,2,4,3,5,4,6,5,7,2,8,1,5,
4,6,3,1,2,6,5,7,4,5,3,4,{4}3b<8[4:1],
8b>4[4:1],4b<8[4:1],{16},,,,1,2,3,4,
5/1,8,7,6,{24}2b/5,3,4,5,6,7,2b,3,4,5,6,7,{16}1b,8,{24}1,,8,
{16}5b,6,5,6,1b,8,1,8,3b,4,3,4,{32}2b,3,4,5,8b,7,6,5,
1b,2,3,4,7b,6,5,4,1b,2,3,4,5,6,7,8,1/6b-8-2-4-6[1:4],5,4,3,2,1,8,7,{4}6b/2b-4-6-8-2[4:15],
E
&lv_6=1
&des_6=
&inote_6=
(146){4},
E
