&title=无尽敌意4nim0sity99.9999%
&artist=イチ
&first=0.024
&lv_5=15
&des_5=白垣
&inote_5=
(72){4},{32},3h[96:101]/6h[96:101],{1},{16},,,1,
1h[8:1],3,3h[8:1],5,5h[8:1],7,7-3[16:1],
4,3,2-6[16:1],7/1,{8}8h[8:1],2b,{16}8,8h[8:1],6,6h[8:1],4,4h[8:1],2-6[16:1],2h[8:1],
,5-1[16:1],2/1,8,{32}7/4-8[16:1],3/6,{16}2/5,2,3/7,{8}8/4b-1[16:1],{16}5/3,6-2[16:1],4/7,7,6,6/2-7[16:1],
3,4,5,6/2,5-1[16:1],4,3/6,2,1/5,,,1-5[16:1],8,7,6/2-7[16:1],5/1,
4,4/3-6[16:1],3/2b,2,1,8/3,B2/B3/E3,B7/E7/B6,1b-5[16:1],{32}4,5,{16}6,8/3-7[16:1],1/2,{64}2,1,8,7,{16}6,3/7-2[16:1],
8,1,2,3/7,4-8[16:1],{64}4,5,6,7,{32}8,7/1,6/2,3/5,{16}4b/7,{32}7,6,{16}5,5-1[16:1],3/7,{64}5/1,8/4,7/3,2/6,{16}5/1V75[16:1],2/5b,
3,4-1[16:1],5/1,4,3-7[32:1],4/2,{64}3,4,5,6,{32}7,8/4,{16}7/3,{32}8/6,1/5,{16}2/4,2-6-2[8:1]/4-8-4[8:1],8/6,{64}8/6,7/5,4/6,3/5,{16}2/4,4b/2b-7[16:1],
,A2/A4,5,2/4,3-6[16:1],{32}4/8,4/8,{16}8/4,5/1,7/3,B1/B8/E1,B5/B4/E5,2-6[16:1],2/6,{64}2,6,2,6,{16}2V46[16:1],2/6,
2,1-4[16:1],2/8,2,2-5[16:1],5/1,{32}5,6,7,8,{16}1/2b-6[16:1],6-2[16:1],8-4[16:1],4-8[16:1],2/8V64V28[8:1],8,A2/8>8[8:1],8,
4-8-4[8:1],8,4w8[16:1],A4,4/A8,4,{8}A4f,{16}2-7[16:1],7-2[16:1],2-5[16:1],5-2[16:1],6/2-6[16:1],6-2[16:1],6-1-6[8:1],6,
{8}6-3-6[8:1],{16}A2/6-2-6[8:1],2,2,2,2,A2,{8}2b/A6f,{16}8-6[16:1],1-5[16:1],8-5[16:1],1-4[16:1],8-4[16:1],1-3[16:1],
8V64V28[8:1],A1,8V24V68[8:1],A1,8bw4[16:1],A4,A8,A4,A8f,,,8/A4,7/A3,6/A2,5/A1,4h[16:3]/A8,
7-3[16:1],8-4[16:1],1-5[16:1],2-6[16:1],7b,8b,1b,2b,{64}8b,1,2,3,4,5,6,7,{48}8,1,2,3,4,5,6,7,{24}8,{96},,,,{32}1,1h[32:1],{64},,,,1b,
2,3,4,5,6,7,8,{48}1,2,3,4/C,5,6,7,8,,,,,1,1,{192},,,,,,,,,,,,,,,,{64}8b,7,6,5,4,3,2,1,{48}8,7,6,5,4,3,2,1,,,,,{8}1h[16:1],
1-5[16:1]/7-2-7[8:1],{16}7-4[16:1],4-7[16:1],{8}1/7,{16}3,2,{64}1b,2,3,4,5,6,7,8,{48}1,2,3,4,5,6,7,8,,,,,{16}1,1-6[16:1],
1-4[16:1],,,A1,{8}A1,{16}8,8-3[16:1],{8}8-5[16:1],{16},,,,7V13[8:1]/6V82[8:1],1/8,
{8}3V57[8:1]/2V46[8:1],7/6,A2f/A3f,A7f/A6f,{64}1/5-2[16:1],6/2,7/3,8/4,5/1-6[16:1],6,7,8,1/5-8>1-4[32:3],4,3,2,1/5,8/4,7/3,6/2,{16}5b/1,1b,{8}5b,
{64}5x/1x-6[16:1],2x/6x,3x/7x,4x/8x,1/5-2[16:1],2,3,4,5/1-4<5-8[32:3],8,7,6,1x/5x,4/8,3/7,2/6,{16}1b/5,5b,{8}1b,{64}1x/5x-2[16:1],2x/6x,3x/7x,4x/8x,5/1-6[16:1],6,7,8,1/5-8>1-4[32:3],4,3,2,1/5,8/4,7/3,6/2,{16}5b/1,1b,{8}5b,
{16}1x,1/5,6/1-4[16:1],4/1-6[16:1],1-5[16:1],1,{32}1,1,1,1,{16}1-4-1[8:1],8x-5[16:1],1>4[16:1]/5<8[16:1],4/8,1b/5,8b,,,7/3b-6-3[8:1],
6/2-7[16:1],3<6[16:1]/7>2[16:1],6/2,3b/7,2b,,,1-6[16:1],6-1[16:1],1-4[16:1],4w8[16:1],1/6,1,{8}4,
{16}A1/D1/A8/D8/A7,D3/A3/D4/A4/D5,4/E7/B6/B7,5/B3/B2/E3,1b/B6/E7/B7,8b/B3/B2/E3,{32}2/7,7/2,2/7,7/2,{16}7/2-7[16:1],7-2[16:1],2-5[16:1],5-1[16:1],2/1-6[16:1],6-3[16:1],3>7[16:1],7-4[16:1],
4w8[16:1],5,4,5,{8}A4f,{16}1/B7/E8/E7,5/E3/B3/E4,{64}1/E8/B7/E7,2,3,4,5-8[16:1],6,7,8,{16}1-4[16:1],{32}6-3[16:1],C,{16}2-7[16:1],5b,1,6,
2-4[16:1],2-5[16:1],2-7[16:1],2-8[16:1],2bw6[16:1],2,2,2,{8}2,{16}2-4[16:1],1-5[16:1],{8}8V64V28[8:1],{16}A2/8-4-8[8:1],A1/A4,
A5/8w4[16:1],8/A4,4/A8,8/A4,{8}A8f,{16}6/3-8[16:1],4/8<5[16:1],{8}1/5v2[16:1],3/6V42[16:1]*q2[16:1],4-8[16:1]*-1[16:1],6bw2[16:1],
4b,6b,{16}5w1[16:1]/4w8[16:1],7/2,6/3,8/1,{8}5/4,{16}2-5[16:1],8-5[16:1],{8}1-5-1[8:1],{16}2b-4[64:3],8b-6[16:1],
1bw5[16:1],1,2b,8b,{8}1b,{16}B2h[4:1]/B3h[4:1],B6h[16:3]/B7h[16:3],Ch[8:1],{32},,,,6/2,7/3,{16}2/6,1/B6f/B5f,7/B3f/B4f,3/B8f/B7f,
5/B1f/B2f,8/B3f/B4f,2/B6f/B5f,6/B2f/B1f,4/B8f/B7f,2/B6f/B5f,6/B1f/B2f,8/B3f/B4f,{8}4/B8f/B7f,{16}B7h[8:5],B6h[16:9],{8}E7h[2:1],{16}5-1[16:1],8-4[16:1],
4>1[16:1],1,5,8,{64}B5/A4,B4,B3,B2,{16}B1,{64}1/5,2,3,4,5/1,6,7,8,1/5,2,3,4,5,6,7,8,1/C,2,3,4,5,6,7,8,1/C,2,3,4,5,6,7,8,1/C,2,3,4,5,6,7,8,
1/C,2,3,4,5,6,7,8,{8}1bh[8:1],{64}2,3,4,5,3,4,5,6,4,5,6,7,5,6,7,8,5b/3bpp6v3[16:3],3,3,3,4b,4,4,4,5b,5,5,5,6b,6,6,6,{16}3bh[16:3],{32}D5f,B3f,{8}B6f,
{64}2bqq7v2[16:3],2,2,2,1b,1,1,1,8b,8,8,8,7b,7,7,7,{16}2bh[16:3],{32}D1f,B2f,{8}B7f,{96}4>8-4<8[16:3],5,4,5,4,5,3,6,3,6,3,6,2,7,2,7,2,7,4,5,4,5,{192}4,5,,,{16}4b,{32}A8f,Cf,{8}A4f,
{48}1,3,2,8,6,7,4,2,3,5,7,6,{96}1b,2,3,4,5,6,7/3,8/4,1/5,6/2,3/7,4/8bh[8:1],{64}4x,4x,4x,4x,4x,4x,4x,4x,4b-7-3-8[16:3],3,2,1,4,5,6,7,4,3,2,1,4,5,6,7,{16}4bh[16:3],{32}A7f,Cf,{8}A3f,
{48}1-5<7-3>1[16:3],2,3,{192}2/4,,,3,,,,,{48}4,3/5,4,5,4/6,5,6,{16}7/1b,{32}D6f/D2f,A7f/A3f,{8}Cf,{64}1p5p1[8:1]*q5q1[8:1],4,1,4,1,5,1,5,1w5[16:1],6,1,6,1,7,1,7,{16}1b,{32}A5f,B7f/B3f,{8}A1f,
{128}1,2x,7,6x,1,2x,7,6x,2,3x,6,5x,2,3x,6,5x,3,4x,7,6x,3,4x,7,6x,2,3x,8,7x,2,3x,8,7x,1,2x,7,6x,1,2x,7,6x,2,3x,6,5x,2,3x,6,5x,{64}7b/3b,7b/3b,7b/3b,7b/3b,7b/3b,7b/3b,7b/3b,7b/3b,
E
