&title=1116 3.0
&artist=佐藤俊介
&first=1.005
&des=lirou
&lv_5=13.9
&des_5=lirou
&inote_5=
(190){8},Ch[4:1],,,,,,,,Ch[4:1],
,,,,,,,Ch[4:1],
,,,,,,,1s5[24:11],
,,,,,,,6/1h[4:3],
,6,,6,,6,
,6/1h[4:3],,6,,6,,6,
,8/1-5[1.2632##0.1053],,7/1h[4:1],,8,,6/1-5b[12:1],
,1b/8,,8,,8/1,,1/8,
,1b,{64},7,,,,,,1,,,,,,,,,{8}1,{16}8,1,,,{8}2,
,8b,{32},2,,,8,,,8,{64},,,,,,,,1,,,8,{16},,{64},,{96},{48}2,,,,,,7,
,6,,5,,4/2bh[#0.421052],,,{16},,{64},,{192},{64}7b,{32},{64},7b,,,,,{32},,,,7,{64},,,2,,,{32},,,3b,,,,,,
,,,,6bh[#0.3947372],,,,{16}1,{32}2,,,,3,,7,,,,3,6bx,,,{96},,{48}3,{96},,,,,{32}5b,{64},,,,,A1,D2,A2,
D3,A3,{32}D4,,6,,,,6,,,,6b,,,,6,,,,3,,,,3,,,,3b,,,,3,
,,,6/2x,,,,7/3x,,,,8b/4b,,,,1/5x,,,,1bx,,,,8b,,,,3bx/7bx,,,,2bx/6bx,
,,,1bx,,2,,3,,4,,8bx,,7,,6,,5,,1bx,,2,,3,,4,,5bx,,7bx,,1bx,
,3bxh[#0.4539452],,,6bxqq1[0.3158##0.75],,,,,,,,,,,,,,,,,,,,,,,,,,,,
,,,B4/B5/B6/D7/E7/E6/D6/A5/A4/D4/E4/B3/E3/B2/A2/E2/D2/Cf/A3f/D3f/A6f/D1f/D5f/E5/A8/E8/B7/B8/E1/B1/A1/A7/D8,,,,,,,,8bxh[#2.249992],,,,,,,,,,,,,,,,,,,,,
,,,,,,,,,,,,,,,,,,,,,,,,,,,,,,,,
,,,,{64},Ch[32:59],,,,,{32},,,,,,,,,,,,,,,,,,,,,,,,,
,,,,,,,,,,,,,,,,,,,,,,,,,,,,,,,,
,,,8b/1b,,,,,,,6,,,,,4b,,8,,3,,7,,3,,6,,3,,,,,
,,,6,,,,3,,,,6,,,,3b,,7,,3,5,,,3,,,,7b,,,,,
,,,6,,,,,,,,6,,,,,{64}4,,,5,,,,4,,,{32}6,,3,,,,5b,,,,,
,,,8b/Cfh[32:17],,,,8,,,,8,,,,,,,,,B7/B6/B2/B3,,,,,,,,,,,,
,,,8b/1b,,,,,,,6,,,,,2b,,6,,3,,6,,4,,7,,5,,,,,
,,,3,,,,3,,,,3,,,,7,,8,,7,,8,,7,,,,4b,,,,,
,,,6,,,,,,,,2b,,,,5,,4,,6,,3,,5,,,,4b,,,,,
,,,8b/Cfh[32:17],,,,8,,,,8,,,,,,,,,B8/B7/B1/B2/B3/B4/B6/B5,,,,,,,,,,{16},
{32},,,3/1-5[8:1],,,,3,,,,3,,,,3,,,,3/7-4[8:1],,,,3,,,,3,,,,3,
,,,8-4[16:1],,,,8,,,,8b,,,,3x-5[8:1],,,,3/5bx,,,,3,,,,8b,,,,8b,
,,,8/1-5[8:1],,,,8,,,,8/1b,,,,8,,,,8/2-5[8:1],,,,8,,,,8/2,,,,8,
,,,8b,,7,,6/1b,,2,,3/7b,,6,,5,,4bx,,3,,4,,3,,4,,3b,,,,,,,,6/8-4[8:1],
,,,6,,,,8/6,,,,6,,,,6/2-5[8:1],,,,6,,,,6/2,,,,6,
,,,1-5[8:1],,,,1,,,,1/8b,,,,6-4[64:5],,,,6/4,,,,6/4,,,,3b,,,,3b,
,,,3/8-4[8:1],,,,3,,,,3/8b,,,,3,,,,3/7-4[8:1],,,,3,,,,3/7,,,,3,
,,,1b,,2,,3/8b,,7,,6/2b,,3,,4,,5bx,,6,,5,,6,,5,,6b,,,,,,,,5b/4bx,
,,,6,,,,5/4x,,,,3,,,,5b/4b,,,,6,,,,7/8x,,,,1,
,,,3/4x,,,,5,,,,6,,,,7,,,,8,,,{16}1,{32},,,2,,,,3,
,,,5/4,,,,7,,,,5/4,,,,2,,,,5/4,,,,4/3,,,,5/6,,,,1/8,
,,,8b,,7,,6,,5,,1b,,2,,3,,4,,6b,,7,,8,,,,3,,,,3,
,,,5b/4b,,,,3,,,,2,,,,1,,,,8,,,,7,,,,6,,,,5/4,
,,,4/7,,,,5/2,,,,6/3,,,,5/4,,,,8/6,,,,1/3,,,,8/5,,,,7/2,
,,,7,,,,7,,,,2,,,,2,,,,5,,,,5,,,,4,,,,4,
,,,8,,7,,2,,3,,7,,6,,3,,4,,5bx,,5,,5,,,,5x,,,,,,,,5bx/4bx,
,,,,,,,5,,,,,,,,,{8}4bx/5bx,,4,
,5bx/4bx,,6,{32},,,,5bx/4bx,,,,,,,,{8}3,
,5bx/6bx,,7,,4bx/3bx,,2,
,5bx/4bx,,5bx/4bx,,6bx/3bx,,7bx/2bx,
,8b,8,1,1,7b,7,2,
2,4x/5bx,3x/5bx,6x/4bx,2/8bx,{32}6b/4x,,,3,,,,,{8}7,
5,{16}5b,4,6,3,7bx,2,8,1x,2bx,3,4,5,6bx,7,
8,1,{8}8b/1b,,1b/8b,,8b/1b,{64},,,,,,,1bx/8bx,,,,,,,,,,,,,,,{32}8b/1b>3[64:5],
,,,2,,,,,{8}8/1-4[8:1],,8/1-5[8:1],,8/1,
{16},8,{8}1/8b<6[64:3],,1/8-4[8:1],2,1/8,,1,
{32},2,,,2,,,8,,8bx,,,{8}1bx-4b[32:3],,5/1-6b[32:3],{64},,,,,,,1,,,,,,,,,,,{32}5,
,,{8}5,,4b/5b,,1bxw5b[32:3],1,1b,
{16},,3,6,{32},3,,,{8}6b,,3,,2h[8:1],
{32},5,,,{8}5b,,8w4[16:1],,8,{32},,,,7w3[32:3],,,8,
,8,,,{8}7,,1,,3/6,,1/8,
,5/4,,5,{16},,8/1,7/2,{32}6/3,,,,,8b,,,,,{16}Ch[32:5],
,,,,{8}3b/4b,,6b/5b,,3,
{32},7,,,{8}7,,2/5b,,5/3b,{16},,8b,8bx,
8bx,8bx,{8}8bx,,3/4,2b,5/6,7b,1/2,
4b,8/7,5b,3b/6,2/7,1b/8,5/4,6b/3,
,B7/B2/B3/B6/B5/B4/B8/B1/Cfh[4:1],,B7/E7/B6/B2/E3/B3,,1x/8x,,Cfh[8:1],
B3/B4/B5/B6,1x/8x,,1b/8bx,,1bw5[32:3],,1b,
,1/8,4/5,3/6,2/7,{64}1/8,,,,,,,7b,,,,6,,,,5,,,,,,3bx,,,,2,
,,,1,,,,,{32}4,,,,,{16}4,{32},,,4,,,,,{8}4b,{32},4bw8b[0.3553##0.1184],,,,,{16}4b,
{32},,,4b,,,,,,,,,{8}1/2,{16},8/7,,1/8,,,{8}2/1,
{16}1/2,8/3,{8}4/7,6b,5/4b,{32}4/5b,,,,,3/4,,,,,,8/7,,,,,{8}1/2,
1b,,5/6,{16},1/2,,6/5,,,{8}7/2,
{16}3bx/6bx,2/7,{8}1/8,2,2,{16}7,,,6b,,,{8}4,
4,3b,{32},1/8h[32:5],,,,,{16}1,,,{8}7/2h[32:5],{32},7,,,,,{16}3/6h[16:3],
,,{8}3,{32},5/4h[64:1],,,,,,4/5h[64:1],,,,,{8}1,2,3b,
8,7b,6,{16}1b,2,{8}3,8b,{16}8,7,{8}6,
{16}4,3,{8}2bxh,{16}6,7,{8}8bxh,{16}1,1,1b,1bx,1bxh,1bxh,1bxh,1bxh,
1bxh,1bxh,1bxh,8bx/2bx,{32},,,3,,4,,2,,6bx,,5,,7,,3bx,,4,,2,{64},6,,,,,,,,,,,,,,,{8}2bx/8bx,
{16},,7,6,8,3x,2x,4x,6x,3x,{8}8bx,
{32}1bx,8x,7x,6x,5bx,,,8bx,1bx,2bx,,3x,,3x,,3x,,4,,3,,5,,6,{64},4,,,,,,,,,{32}5,,5,
,5,,,{8}3b/7b,{16},,2b,1,2,1,2,1,2,1,{8}2,
,3b/6b,{16},,3b,6,3,7,3,8,3,1b,,,,,{8}1b/8b,
{16},1,8,3,6,2,7,1,1,1,{8}1bx,
{32},,,1bx,,2,,3,,4,,5/6bx,,7,,8,,1bx,,8,,7,,6,,5,,4,,1,,8,
,1,,8,,1b,,2,,3,,4,,5,,6,,7,,8,,1,,2,{64},,3bx,4bx,,5,,6,,7,,8bx,,1bx,,2bx,
,3bx,,4bx,,,,,{8}1bw5b[0##0.2763],
E
