&title=スーサイドパレヱド
&artist=ユリイ・カノン
&first=0
&lv_5=13.5
&des_5=Antithisis
&inote_5=
(176){4},,,,{8}8,
1,,8,{16}1,2,{8}3,1,8,
1,8,,1,{16}8,7,{8}6,8,1,
8,8,,3,{16}2/B7,B6,{8}B5,{16}7/B2,B3,{8}B4,
8/3,1/6,,2/7,{2},{4}2q5[8:1],
1/2,{16}7,8,{8}7,1,2,
,{16}6,5,{8}6,{16}3,4,{8}3,{16}7,8,{8}7,1,
{4}8-4[8:1],1/8,{8}1,6,4,8,
,{16}1,8,{8}1,1,{6}6,4,2b,
{2}8w4[8:1],{8}1-5[8:1],8-4[8:1],1,8,
,{16}1,8,{8}1,8,{16}3,6,3,6,{8}4,5,
{2}1w5[8:1],{16}8,1,{8}8,2,3,
,{16}6,5,{8}6,1,{16}3,4,3,4,{4}8bx,
2q6[4:1],6q2[4:1],{2}2,
{4}7p3[4:1],3p7[4:1],{2}7,
{4}8p4[4:1],4p8[4:1],8p4[4:1],4,
1p5[4:1],5p1[4:1],1p5[4:1],5,
{8}8,8,2,2,{4}8,{8}6x,5x,
,7,3,5,1,4,8,6,
2,{16}7,5,{8}6,{16}2,4,{8}3,{16}7,8,{8}6,{16}2,1,
{8}3,7x,7,2,8h[8:1],2,1h[8:1],8,
8x-4[0.6818##0.1705],1x,7x,2x,{4}8x,{8}2h[4:1],6h[8:1],
,1/8-5[0.1705##0.3409],2,3,1-4[0.1705##0.3409],8,7,6,
2,{16}3,4,{8}3,{16}6,5,{8}6,{16}3,4,{8}3,{16}6,5,
{8},E1,E6,E4,8x/7x,1/6,{4}2/5,
{8}1>6[0##0.5114],8,7,8,1,1,,6h[4:1],
,3,8,7,1,2,{4}6,
{8}1-5[8:1],2,3/1,4,8,8,,3h[4:1],
,6,4,5,1/2,6/5,{4}3,
{8}8x/E4,7,1x/E6,2,6,3,,8h[8:5],
,2,2,3,{4}3,{8}B2,B7,
1x/8x,{16}6,2,{8}6,{16}3,7,{8}3,{16}6,2,{8}6,{16}3,7,
{8}4,4,8b,8b,2,Cfh[4:1],{4}1-4[8:1],
8,{16}7,{8},{16}1,{8}7,1,,1h[8:1],
,8,6,4,{4}2,7h[8:1],
{8}8/1-5[8:1],2,1/8-4[8:1],7,8,1,,8h[8:5],
,1,3,6,C,{4},{8}1/8,
{4}2h[8:1]/7h[8:1],{16}1,{8},{16}5,{8}1,5,,3,
,3,8,8,{4}1-5[8:1],1/8,
{8}1-5[8:1],8-4[8:1],1,8,2-5[8:1],7-4[8:1],2,7,
1,{4},{8}2,{4},8h[4:1],
1,{16}6,{8},{16}5,{8}6,5,,3,
,3,7,7,{4}1,1,
{8}4/5,3,4/5,6,4/3,2,5/6,7,
2-6[8:1],6-2[8:1],{4},{8}8,{4},{8}1>5[0.1705##0.3409],
{4}5<1[4:1],1>5[4:1],5,1,
{8}7,7,3,3,{4}8,1bx,
{8}2,{16}6,5,{8}7,{16}3,4,{8}2,{16}6,5,{8}7,{16}3,4,
{1}2h[8:3],
{2}8-5[4:1],1-4[4:1],
7-5[4:1],2-4[4:1],
8-6[4:1],1-3[4:1],
7-4[4:1],2-5[4:1],
{4}7h[2:1],1,2h[2:1],8,
6h[2:1],1,3h[2:1],8,
{8}5h[2:1],2,2,2,4h[2:1],7,7,7,
8,{16}2,1,{8}2,{16}7,8,{8}7,{16}2,1,{4}2,
{8}8h[2:1],{4},{8}4,{4}3h[2:1],{8}7,6,
5h[2:1],{4},{8}2,{4}1h[8:3],{8}5,6,
{12}2,2,,8,8,,1,1,,7,7,,3,
3,,{8}5,6,{2}7h[4:1],
{8}2h[2:1],{4},{8}7,{4}6,{8}7h[2:1],2,
3h[4:1],{4},{8}7,2,8,{4}1,
{8}8h[4:1]/1h[4:1],{4},{8}1/8,{4}2/7,6/3,
4/5,8/7,5/4,2/1,
{8}1,{16}8,1,{8}8/1,8/1,7/2,7/2,,6h[4:1]/3h[4:1],
{4},{16}4,5,{8}4,6/3,6/3,{4}7/2,
{8}E1,{16}B6,B3,{8}B8,B1,E8/B8,B1/E2,,Ch[4:1],
{4},{16}1x,2,3,4,8x,7,6,5,{4}1,
{8}2,2,{16}7,8,{8}7,1,1,,6h[4:1],
{4},{16}4,5,4,5,3,6,3,6,2,7,2,7,
{8}2x,{16}6,5,{8}6,{16}3,4,{8}3,{16}7,8,{8}7,{16}2,1,
{8}2,{16}6,5,{8}6,{16}3,4,{8}3/6,3/6,2/7,2/7,
{4}8h[4:1],3h[4:1],6h[4:1],{8}4,3,
,6,3,8,1,E1,E6,E4,
{12}8,7,6,1,2,3,7,6,5,2,3,4,
8,7,6,1,2,3,{8}8,1,7,2,
8h[4:1],1,1h[4:1],8,{4}8h[8:1],{8}B7/B2,B6/B3,
,8-4[0.1705##0.3409],1,2,1-5[0.1705##0.3409],8,7,6,
1x/8x,2,8x/1x,7,2,3,7,6,
,1,6,3,8,4,{4}7,
{8}3,2,6,7,1/8,1/8,,3h[4:1],
,8,3h[8:1],8,1,2,{4}3,
{8}7,6,2,3,8/1,8/1,,6h[4:1],
,1,6h[8:1],1,8,7,{4}6,
{8}4,3,5,6,2/7,1/8,,4h[4:1],
,B6,5h[8:1],B3,{4}C,1h[8:1]/8h[8:1],
{16}1x,8x,1x,8x,2,7,2,7,3,6,3,6,4,5,4,5,
{8}3/4,2,5/6,7,{4}4/5,1-4[8:1]/8-5[8:1],
1/8,{16}8<4[8:1],{8},{16}1,{8}8,2,,1-4[0##0.3409],
,8,8,6,{4}3,1b,
{8}8<6[8:1]/3<5[8:1],1/2,{4}8/3,{8}3/7,8/2,,1/6,
,8-4[0.5114##0.1705],6,2,8,{4},{8}1-5[0.1705##0.1705],
{4}8,{16}7,{8},{16}3,{8}6,6,,1h[2:1],
,6,6,5,{4}2/4,8/7,
{8}5/4,2,4/3,7,6/5,1,7,3,
8-4[0.5114##0.1705],{4},{8}8w4[8:1],{2},{4}1h[4:1],
{16}6,{8},{16}3,{8}5,4,,8h[4:1],
,3,6,1,{4}8h[4:1],1,
{16}8/1,2,{8}3,{16}1/8,7,{8}6,{16}2,3,{8}4,{16}7,6,{8}5,
1,2,6,4,{16}1/5,8,7,6,{4}5/1,
2q5[8:1],1/2,8,6,
{8}3,4,6,5,{4}2,8,
{8}4/3,5/2,8/1,5/6,7/3,8/1,2/7,5/4,
{4}3h[8:3]/6h[8:3],{2},{4}Ch[4:1],
1/8,{16}4,{8},{16}5,{8}4,5,,3h[4:1],
,6h[8:1],{4}3h[8:1],6h[4:1],3,
{8}4/5,{16}3,4,{8}2,{16}6,5,{8}7,{16}3,4,{8}2,{16}6,5,
{8}7,1,3,5,7,{4},{8}1/8,
{16}3h[4:1]/6h[4:1],{8},,,{16}4,{8}5,4,,7h[4:1],
,6,2h[8:1],3,{4}5,2h[8:1]/7h[8:1],
{8}B8/B1,B4/B5,1/8,4/5,2,3,7,6,
1/5,{4},{8}7h[8:3]/3h[8:3],{2},{4}7h[4:1],
{16}1q5[8:1],{8},{16}8,{8}1,7,,2,
,2,6,6,{4}2,3h[8:1]/6h[8:1],
{8}5/4,{16}1,2,{8}3/4,{16}8,7,{8}6/5,{16}1,2,{8}3/4,{24}8,7,6,
{8}5/1,7,3,8,2,{4},{8}8,
{4}2h[4:1],{16}6,{8},{16}3,{8}4,3,,6h[4:1],
,2h[8:1],8h[4:1],3,{4}3h[4:1],7,
{8}8/1,{16}7,8,{8}6,{16}2,1,{8}3,{16}7,8,{8}6,{16}2,1,
{1}3h[4:1],
{8}1,{16}6,5,{8}6,{16}3,4,{8}3,{16}6,5,{8}6,{16}3,4,
{2}3/Cfh[4:1],{16}8,1,{8}8,2,3,
,{16}5-1[0.1705##0.1705],6,{4}5,{16}4-8[0.1705##0.1705],3,{8}4,{4},7-4[8:1],
8/7,{8}3,4,5,1,
,{16}7,8,{8}7,1,{6}6/5,1/2,5/4,
{4}8-5[8:1]/1-4[8:1],1/8,{8}6x,3,6,3,
,{16}8,1,{8}8,{16}2,7,{8}2,{16}5,4,{4}5,
{2}2h[4:1],{8}7,5,3,5,
,1p1[0.1705##0.3409],{4}1,{8}8<5>4[0.1705##0.1705],8,{4},2v4[0.6818##0.5114],
6v8[8:3],{2},{4}7v5[0.6818##0.5114],
3v1[8:3],{2},{8}2v4[0.6818##0.5114],
2,6v8[8:3],6,{2},{8}7v5[0.6818##0.5114],
7,3v1[8:3],3,{2},{8}5,
5,3,3,8,8,2,2,
6,6,1,1,7,7,4,4,
8-4[0.1705##0.1705],4-8[0.1705##0.1705],{4},{8}1-5[0.1705##0.1705],5-1[0.1705##0.1705],{4},{8}7-3[0.1705##0.1705],
3-7[0.1705##0.1705],{4},{8}2-6[0.1705##0.1705],6-2[0.1705##0.1705],{4},{16}6,
3,6,1,{8},{16}3,6,3,8,{8},6/3,8/1,
E
