&title=호랑풍류가
&artist=상록수
&first=0
&des_5=老虎与兔子
&lv_5=14
&inote_5=(160)
{1},
{16}3x-8[8:1],4,,4,3,,7,,6x-1[8:1],5,,5,6,,2,,3x,4,3,4,2pp6[8:3],,1,,8xh[2:1],,,,,,,,
{8}5-2[8:1]*-1[8:1],,,,8,7,6/5,4,3v8[8:1]*q7[8:1],,,,1,2,3/4,5,6v1[8:1]*p2[8:1],,,,8/3,7,4/6,3,2/1-4[8:1]*-6[8:1],,,,
{8}3/7,2,1/8,7,4v1[8:1]*v7[8:1]/6,,,,6/2,7,8/1,2,5^8[8:1]*^2[8:1]/3,,,,3/7,2,1/8,7,4^1[8:1]*^7[8:1]/6,,4-8[8:1],,4/2,3,4/7,6,5V37[4:1]/3,,2,1,1w5[8:1],,1b,,
{16}7^5[8:1],,,,7/8,,1,,2-4[8:1],,,,2/4,,5,,6<2[4:1],,,,2p6[4:1],,,,5,,4,,3,,,,
{16}2^4[8:1],,,,2/1,,8,,7-5[8:1],,,,7/5,,4,,3>7[4:1],,,,7q3[4:1],,,,4,,5,,6,,,,
{16}6^8[8:1],,,,6/5,,4,,3-1[8:1],,,,3/8,,8,,7<3[4:1],,,,3V57[4:1],,,,8,,1,,2,,,,
{8}8bqq5[8:5],,2,3,4^1[8:1],,4,,6h[4:1]/8,1,2,3,4h[8:3],8b,8b,8b,
{16}7-4[8:1],,,,7/8,,1,,2^5[8:1],,,,2/5,,6,,7>3[4:1],,,,3p6[4:1],,,,5,,4,,3,,,,
{16}2-5[8:1],,,,2/1,,8,,7^4[8:1],,,,7/4,,3,,2<6[4:1],,,,6q3[4:1],,,,4,,5,,6,,,,
{16}6-1[8:1],,,,6/5,,4,,3^8[8:1],,,,3/8,,7,,6>3[16:3],,,,3V58[4:1],,,,1,,2,,3h[4:1],,,,
{8}2b<6[4:1],,6,5,4w8[8:1],,,,2/6,3,4/8,7,2-5[8:1]/6-1[8:1],,,,
{16}3/7,,6,5,6,,3,4,3,,6,5,6,,3,4,2,,6,5,7,,3,4,2,,6,5,7,,3,4,1,,6,5,8,,3,4,1,,6,5,8,,3,,4qq3[16:3]*pp5[16:3],,,,4-8[8:1],,,,,,,,2x/6x,,,,
{16}7/4,,6,6,5,,3,3,4,,6,6,5,,2,2,4,,7,7,5,,2,2,4,,7,7,5,,1x/6x,,8b,7,1,6,2,5,3,4,2b,1,3,8,4,7,5,6,4b,6,4,6,3b,7,2,8,1bqq5[2:1]*pp5[2:1],,,,,,,,,,,,,,
{16}4x/6x,,{4}3x-5[8:1]/5x-1[8:1],5>7[4:1]/3,6x,{8}4-8[8:1],5,6x^3[8:1]/4x,,1-5[8:1]*^7[8:1]/6,,1b,,{16}3-8[8:1],4,2,,3x/7x,,,,{8}1^4[8:1]/6v1[8:1],2,1x^6[8:1]/6x,,5w1[8:1]b,,5b,,7/3,,8x^5[8:1],1,2,
{16}3,,{4}6x-4[8:1]/4x-8[8:1],4<2[4:1]/6,3x,{8}5-1[8:1],4,3x^6[8:1]/5x,,8-4[8:1]*^2[8:1]/3,,8b,,{16}6-8[8:1],5,7,,6x-4[8:1]/2x,,,,{8}6/1-5[8:1],8,1x^6[8:1]/5x^2[8:1],,1x/5x,,6/2bx-6[8:1],,8bxw4[8:1]b/2,,8b,,2/6,,
{16}3x,4x,3x,4x,{2}3xh[2:3],E1,E8,{4}E7f,{16}6x,5x,6x,5x,{2}6xh[2:3],E1,E2,{4}E3f,
{8}2/4,3/5,4/6,{16}7,5,7^4[8:1],,8,,1h[8:1],,,,{8}2/4,3/5,4/6,{16}1,7,1<4[4:1],,2,,3h[16:3],,,,{8}1,2/5,3/6,{16}4,7,4^1[8:1],,8,,{16}7,,6,,{24}1/5,,,2x,4x,2x,4x,,,{8}1,7/8,1/6,2/5,3/4,
{1}2h[2:1]/5<4>5[2:7],3h[2:1],{2}5h[4:1],4h[4:1],{4}E3,E2,E1h[4:1],,
{16}7,,6,5,6h[8:1],,3,4,3h[8:1],,6,5,6h[8:1],,3,4,2h[8:1],,6,5,7h[8:1],,3,4,1h[8:1],,6,5,8h[8:1],,4x,,3b,4,2,5,1,6,8,7,5b,6,4,7,3,8,2,1,{32}3b,4,5,6,7,8,1,2,3b,4,5,6,7,8,1,2,{4}3b/Cf,,
{4}E1,E8,E7,E6,E5,E4,E3,E2/E6,E3/D3,E4/D4,E5/D5,E6/D6,E7h[2:1]/D7h[2:1],E1/D1,E2/D2,E3/D3,
{4}3h[8:1]/4,3h[8:1]/5-7[8:1],3h[8:1],3h[8:1]/8h[8:1],3h[8:1]/1h[8:1],3h[8:1]/8h[8:1],3h[8:1]/7,{8}4h[8:1]/6,6,4h[8:1]/7,,4h[8:1]/8,1,4h[8:1]/8,7,4-8[8:1]/6,,{4}4b-2[8:1]*-6[8:1],4bw8[8:1],4b/Cf,
{8}2x/6x,3x,
{4}2x-5[8:1]/5x-1[8:1],5>7[4:1]b/2,6x,{8}4-8[8:1],5,6x^3[8:1]/4x,7,1-5[8:1]*-6b[8:1]/6,2,1b,,{16}3^8[8:1],4,2,4,3x,,,,{8}1^4[8:1]/6-2[8:1],2,1x^6[8:1]/6x,,1/5w1[8:1]b,,5b,,7/3,2,1x^6[8:1],2,3/1,
{16}3,,{4}7x-4[8:1]/4x-8[8:1],4<2b[4:1]/7,3x,{8}5-1[8:1],4,3x^6[8:1]/5x,2,8-4[8:1]*-3b[8:1]/3,7,8b,,{16}6^1[8:1],5,7,5,6x-4[8:1],,,,{8}6/2-6[8:1],1,8^3[8:1]*^5[8:1]/2,,8,,6/2b-6[8:1]b,,8bw4b[8:1]/2,,8b,,
{8}2/6,3/7,4^1[8:1]/8,,4/7-3[8:1],6,1-5[8:1]/7,2,1/8-4[8:1],,{16}8b-2[8:1]*-6[8:1],,,,8bw4b[8:1],,,,8b,,,,
{8}7/3,6/2,5^8[8:1],,5/2-6[8:1],3,8-4[8:1]/2,7,8/3-7[8:1],,{4}5/3,2-5[8:1]/6-1[8:1],2/6,8w4b[8:1],{1}8b<1[1:1]/Cf,{2},
{8}2/6,3,4/5,6,5-2[8:1]*-1[8:1]/7,,5,,8/3,7,6/5,4,3v8[8:1]*p7[8:1]/2,,3,,1/6,2,3/4,5,6v1[8:1]*q2[8:1]/7,,6,,8/3,7,4/6,3,1w5[8:1]/2,,1,,
{8}3/7,2,{16}1/8,,6/2,,{8}4-1[8:1]*-7[8:1]/5,,4,,6/2,7,{16}1/8,,3/7,,{8}5^8[8:1]*^2[8:1]/4,,5,,3/7,2,1/8,7,{16}3b,4,2,5,1,6,8,7,2b,1,3,8,4,7,5,6,{4}4b-8[8:1],4bw8[8:1],{16}4b,,,Chf[16:1]/B1h[16:1]/B3h[16:1]/B5h[16:1]/B7h[16:1],
E
