&title=宇宙冷漠(long ver.)
&artist=AI
&first=0.500
&des=ZrP
&wholebpm=135.300
&lv_5=13+
&des_5=ZrP
&inote_5=(67)
{16},,,,
,,4,,
(71)
{16}3q5[0.8366##0.8606],,,,
(69)
{16}C,,,,
(68.5)
{16}6h[8:1],,,,
3/5,E2,,3,
(69)
{16}8-6b[0.8609##0.4499],,B5,,
(68)
{16},,3,,
1,,B2,,
5h[16:1],,3,2,
7h[8:1],,4-8b[0.8979##0.2239],3,
(67)
{16}2/6,5,,,
(67.5)
{16}7<4[0.8889##0.9091],,4,4,
(66)
{16},3,,,
(67)
{16}1-5[0.8866##0.8955],,,7h[#0.6716423],
,,,,
8V64[0.8955##0.8955],,6,5,
4,3,2,1bh[#1.130873],
(65)
{16},E5,
(66)
{16}B5,,
(68)
{16},,,,
6/2-5-1[0.8824##0.9041],,,5,
(67)
{16}6,,7,,
(70)
{16}8-4[0.8937##0.4348],,
(67)
{16}7,7,
(69)
{16}4,,3,,
(66)
{16}2V41-5[0.9091##1.2794]/6V84[0.9091##0.8647],,,,
(68)
{16},,,,
,,,,
8,,7,,
6-1[0.8824##0.8893],,,,
(69)
{16},,
(66)
{16}3,,
(67)
{16}4q5[0.8955##0.84],,,,
(70)
{16}C,,,,
(68)
{16}6,,
(66)
{16}8b,4,
(68)
{16}5,6-8[0.8862##0.2057]/4-2[0.8862##0.2057],,
(65)
{16},
(70)
{16}6/4,,,,
(67)
{16},,,,
5b/1bV37[0.8866##0.8866],,,,
7V13[0.8866##0.8648],,,6,
(68)
{16}6h[8:1],,,,
(72)
{16}7h[#0.8452377],,
(70)
{16},,
(67)
{16}5pp8[4:1],,,,
3,3,,2,
1q4[0.8955##0.8824],,,,
(68)
{16}1/5,6,,7,
(66.5)
{16}8h[#0.902256],,,,
(67.5)
{16}4,3h[#0.4529915],
(65)
{16}B7,,
(70)
{16}2q4[0.8571##0.8824],,2,,
(68)
{16},,,,
5h[8:1],,8,,
C,
(66)
{16}1b,1b,1b,
(70)
{16}2h[16:7],,,,
{48},,,,,,,,,4x,5x,6x,
(67)
{16}Cf/7bx-5<6-8[4:1],,,,
5h[16:3],,,,
4p1[0.8801##0.8647],C,
(68)
{16}7,,8,8,
{48},,,E8,B7,B6,E6,,,,,,
{16},,
(70)
{16},,,,
(67)
{16}C,,,,
E6,E4,B7,E2,
8b-4[8:1],,3/6,7/4,
8/5,,6,,
(69)
{16}8b-4b[8:1],,3/6,4/7,
8/5V31[0.8696##0.8955],,3,,
(67)
{16}1<4[0.8955##0.8955],,,,
5,,,1,
(68)
{16}1,B2,6,B6,
2b-7[8:1],,5,,
6-3[8:1],,,,
2,,,1,
{16}1pp3[0.8824##0.8824],,3,,
3<5[0.8824##0.4636],,,,
(66)
{16}1,,B2,6,
(67)
{16}4,2/6,,7/3h[16:1],
,
(69)
{16}8b,
(70)
{16}8b,
(71)
{16}8b,
(66.5)
{16}7h[#0.4511261]/1h[#0.4511261],,
(67)
{16},,2b-7[0.8866##0.4325]/6b-3[0.8866##0.4325],,
,,
(68)
{16},,,,
2z6[4:1],,1,,
8-4[8:1],,,,
,,3,B2,
{16}6h[8:1],1b,,
(66)
{16}1b,
(67)
{16}7v6-4[0.8955##0.8759],,7,,
(68.5)
{96}4,,,,,,,,3,,,,,,,,,2,,,,,,,
(66)
{16}1-5[0.9##0.4034],,,,
(70)
{16},6b,,7b,
(67)
{16}8bh[8:1]/4bh[8:1],,,,
(68)
{16}2-7[0.8824##0.2206]/6-3[0.8824##0.2206],,,,
2b/6b,,1b,1b,
1b,1b,1b,1b,
1b,2/6,2/6,7/3,
(66.5)
{16}7/3,4/8,4/8,5/1,
(68)
{16}5b/1bs5b[0.8824##0.4478],,,,
(67)
{16}6V42V83[0.8866##0.9024],7,,7,
(68)
{16}8,8,
(65)
{16}7,7,
(68.5)
{16}6,5/1,,6,
(67)
{16}7/3-5[0.8866##0.4032],,8/2,,
(70)
{16},1b,,8,
7h[#1.342644]/3h[#1.342644],,,,
(65.5)
{16},,,,
Cf,,
(66)
{16}1,1,B7/E7,3,
5,
(69)
{16}B3,E6,1,
(67)
{16}8b,,2-7[16:1]/6-3[16:1],,
7,3,6b/2b,,
(70)
{16}1/5,,
(68)
{16}4,B3/B7,,6,
3/7<4[8:1],B2/B6,,,
7/3,,2,,
1h[16:3]/5h[8:1],,,,
{16}B6/B2,,E8,E4,
6b/2b,B4/E5,B7/E7,3b,
6bh[8:1],,1,,
(66)
{64}2/6,3,4,5,6,7,8,1,2/6,3,4,5,6,7,8,1,
(68)
{64}2/6,3,4,5,6,7,8,1,2/6,3,4,5,6,7,8,1,
(67)
{96}7bx/2x,6bx,5bx,4bx,3bx,2bx,1bx,8bx,7bx,6bx,5bx,4bx,3bx,2bx,1bx,8bx,7bx,6bx,5bx,4bx,3bx,2bx,1bx,8bx,
(69)
{16}7x-2[0.8696##0.2239]/3x-6[0.8696##0.2239],,Cf,,
(67)
{16}7b/3b,,,1,
8/2-4[0.8866##0.2119],,B7,6,
(68)
{16},7h[#0.4348755],
(70)
{16},5,8-4b[0.8831##0.1119],,
(66)
{16}3/5,,
(67)
{16}8b/2,,1,2,
3/5>8[16:3],,8,,
7,6,5,4,
2h[#0.8763351]/3-7[0.8763##0.2239],,
(70)
{16}1-5[0.8763##0.2239],,
(67)
{16}3V57-1[0.8955##0.6618],,,,
(68)
{16},,4bxh[#1.320518],,
1b,1b,
(70)
{16}1b,
(67)
{16}1b,
(68)
{16}6<2v4[0.8824##0.9179],,,,
(66)
{16}Cf,,,,
(68)
{16}1,1h[16:3],,5,
6,7,8>4[64:7]*<4[64:7],1/7,
C,,,,
(67)
{16}E3/B2/B3/E6/B6/B5,,8,7,
6/4,3,,2,
(68)
{16}1-5[0.8824##0.2273],6/4,2/8,,
(66)
{16}1/6,7,
(72)
{16},8,
(67.5)
{16}4/8h[2:1],B6,,B2,
A1,,B6,B2,
A1,E3,E4,A4,
(69)
{32}8>8[0.8696##0.8955],,4,5,3,,6/2,,
(67)
{16}8/3h[8:1],,,,
(68)
{16}2h[8:1],,,,
(66)
{16}5/3,5/3,
(67)
{16}6/4,6/4,
(68)
{16}7/3,7/3,
(69)
{16}8/2,8/2,
(67)
{16}3bq3[16:3]/7bq7[16:3],,,,
,,,,
(68)
{16}Chf[8:7],,1b,1b,
(70)
{16}1b,
(68)
{16}1b,1b,1b,
(67)
{16}1b,1b,1b,1b,
(68)
{16}1b,,,,
(67)
{16}1b-5[0.8955##0.4167],,3/7,,
(72)
{16}5,,
(66)
{16},7,
(67)
{16}8V64[0.8955##0.6618],,6/4,,
(68)
{16}2,,,1,
(67)
{16}2q6-4>3-1[0.8955##1.1046],,3/7,,
(68)
{16}8,,,8,
(67.5)
{16}7h[8:1],,1,,
6V47[16:3]/2<1-3<4[16:3],,,,
6/2,,,,
(68)
{16}5/1,,1,,
(67.5)
{16}2-5[8:1],,5,6,
7v8[0.8889##0.4412],,8-6>5[0.8856##0.4412],,
(68)
{16}4h[8:1],,,,
3,,3b/5,2b/6,
7/1bq4[0.8824##0.8955],,,,
(67)
{16},,,,
Cf,,7h[16:1],,
(69)
{16}8/2,3,4/6,,
(67)
{16}3/5h[8:1],B2/E2,,6,
(67.5)
{16}5/7V58[16:3],,4,3,
1b,,2>5[0.8922##0.4478],,
(67)
{16}1,2,,6,
7,B4,3,2,
(68)
{16}1/6h[8:1],,,,
(67)
{16}7-4[0.8955##0.4412],,8,1q5>2[0.8856##0.8922],
(68)
{16}2,,,5,
(67)
{16}6h[8:1],,,,
(67.5)
{16}3-5[0.8889##0.2143]/7-1[0.8889##0.2143],,,2/6,
(70)
{16}7/3,,
(66)
{16}8h[16:1]/4h[16:1],,
(68)
{16}8/4,7/3,6/2,5/3,
(67)
{16}6/4,7/5,6/4,5/3,
(68)
{32}2,5,3,6,4,7,4,6,
(67)
{64}3,,5,,2,,4,,1,8,7,6,5,4,3,2,
(68)
{96}1bx,8x,7x,6x,5x,4x,3bx,2x,1x,8x,7x,6x,5bxs1b[0.8824##0.4412],4x,3x,2x,1bx,8x,7bx,6x,5x,4x,3x,2x,
{16}1bx,,5b,,
(67)
{16},2,3,4b-8b[0.8856##0.2206],
(68)
{16}Cf,,,1b,
,2,3,4,
(66)
{16}5/6,5/4,3-5[0.899##0.4444],2,
(67.5)
{16}1/5-2[0.8889##0.4412],6,3,,
(68)
{16}7,,8,7/1-4b[0.8824##0.2206],
6,3/5-8b[0.8891##0.2273],,1b,
(66)
{16},5b,,4,
(67)
{16}5/2b<6[0.8955##0.8889],6,3/7,,
(67.5)
{16}6>2[0.8889##0.8889],,7x,8xh[8:1],
,,7,6-8[0.884##0.2206],
(68)
{16}5h[16:3],,,6b,
(67)
{16},5,6,
(64)
{16}7,
(67.5)
{16}8h[#0.4444427],,
(67)
{16}7b,7b,7b-3[0.8859##0.2206],8,
{64}1V73[0.8793##0.2206],,,,
(70)
{16}2,
(68)
{16}7x>2b[0.8824##0.2985],,,,
(67)
{16},6,5-1b[0.8955##0.2239],4,
3h[4:1],,5b,,
E7/B6/B7,2,3,4,
6/5,5/4-7b[4:1],4/3,2h[16:13],
{16},,,,
,,7xh[8:3],,
,,,,
,,2/7,,
{16}2pp5[0.8955##1.791]/7q1[8:3],,,,
,,,,
,,,,
(65)
{16}8b,8b,8bp5[2:1],8b,
8b>1>2>3<4<5<6<7[2:1]*>7b[2:1],,,,
{4}
