&title=Nhelv
&artist=Slientroom
&first=0
&des=
&des_5=枫朔
&lv_5=14
&inote_5=(174.59){4},,,,{1}4v1s5<4[8:45],
,,,{16},6h[16:69],
{1},,{8}5>8q5[8:11],
,,,,,,,,,,,,,,{4}4,
3h[8:9],{8},5,,6,
{4}6,7h[2:3],{8},4,{16},,,B4,
{4}B3,2h[8:17],,,6,
6,{8},7,,,{4}5,
5h[8:9],{8},3,,2,
{4}2,1h[2:3],{8},6,{16},,,B5,
{4}B4,4h[8:11],,,8,
8h[8:3],{24},,,,E4,E3,E2,E1,E8,E7,E6,E5,
{4}2-4[16:1],Ch[4:1],{16},4,{8}4,5,3/6,
{4}7-5[16:1],Ch[4:1],{16},5,{8}5,4,6h[16:1],
{4}3-1[16:1],Ch[4:1],{16},1,{8}1,8,7/2,
{4}6-8[16:1],{16}C,,,7x,,1,{8}1,8,1/7,
{4}2-4[16:1],Ch[4:1],{16},4,{8}4,5,3/6,
{4}7-5[16:1],Ch[4:1],{16},5,{8}5,4,6h[16:1],
{4}3-5[16:1],Ch[4:1],{16},5,{8}5,6,4/7,
{4}1/2,{16}E2/E3,,,B7,,E3/B3,,E6/E5,{4}Ch[8:1],
{16}6,5,6,5,{64}7x,B7,,,,,,,{8}4,{16}3,4,3,4,{64}2x,B2,,,,,,,{8}5,
{16}6,4,6,4,{64}7x,B7,,,,,,,{8}4,{16}3,5,3,5,{64}2x,B2,,,,,,,{8}6,
{16}7,5,6,5,{64}7x,B7,,,,,,,{8}3,{16}2,4,3,4,{64}2x,B2,,,,,,,{8}6,
{16}7,8,6,8,{64}7x,B7,,,,,,,{8}3,{16}2,1,3,1,{64}2x,B2,,,,,,,{8}6,
7/5,7,4/6,6,3/5,3,4/2,2,
1/5,1/5,2/6,2/6,3/7,3/7,4/8,4/8,
{16}5,1,4,8,3,7,2,6,{32}1,2,3,4,5,6,7,8,1,2,3,4,5,6,7,8,
{1}1/Cfh[2:1],
{8}6-4[12:1],{16}3,3,{8}6,2,2-5[8:1],5-3[8:1],2,6,
7-5[12:1],4-8[12:1],7,4,{24}5-1[12:1],6,7,1,2,3,{4}5,
{8}2>5[8:1],{16}1,1,{8}2,7,8-4[8:1],4-6[8:1],8,3,
2<7b[8:1],7>3b[16:3],{4}2,{16}E6,E7,E8,E1/B1,B5/E5,E4,E3,E2,
{8}7-5[12:1],{16}8,8,{8}7,2pp5[16:5],6-8[12:1],2,{4}6,
{8}7-4[8:1],5-3-1[4:1],7,5x,6-8[12:1],5,6,{16}2,3,
{8}4-6[8:1],6-2[8:1],4,7,8-4[8:1],1,{4}8,
{8}2<8-3-5b[2:1],5,{4}2,{8}7-1[12:1],6,{4}7,
{32}4-8[8:1],3,2,1,8,7,6,5,{4}4,{16}7-5[12:1],1,,1,{8}7,2,
3-1[12:1],{16}4,4,{8}3,5,{24}6-2[8:1],7,8,2,3,4,{4}6,
{32}5-1[8:1],6,7,8,1,2,3,4,{4}5,{16}8-6[12:1],2,,2,{8}8,3,
4-2[12:1],{16}5,5,{8}4,6,{16}E8,E7,E6,B4/E5,E1/B8,E2,E3,E4,
8V24b[4:1],7,6,5,{4}8x/4x-6-8b[4:1],8xq2b[16:5],5x,
{16}6x<1b[16:3],,,1x>4b[16:3],,,{8}4x<7b[16:3],,1,2,3,
{16}8/4,7/3,6/2,5/1xp5b[16:3],,,{8}5x>1b[16:3],{16},1xq5b[16:3],,,{4}5x-7-1-3-5b[2:1],
{16},,,,,,,,E6,E7,E8,E1,E5,E4,E3,E2,
{4}7-4[8:1],{8}7/8,1,{16}2-8[12:1],4,3,5,{8}2,6,
7<4[8:1],{16}8,8,{8}7,1,{16}1,2,3,4,7,6,5,4,
{4}2v5[8:1],{8}2/1,8,{4}7x-5-3[8:1],{8}7/8,1,
{4}2/4x-2-8[8:1],{8}4/5,6,{4}7/1x-7-5[8:1],{8}1/2,3,
{4}4/6x-8-2[8:1],{8}6/5,4,{4}3/1x-3-5[8:1],{8}1/8,7,
6<1[8:1],{16}5,5,{8}6,4,3-1[12:1],8,3,{16}7,6,
{4}5x-7-1[8:1],{8}5/4,3,{4}2/8x-2-4[8:1],{8}8/7,6,
5-7[12:1],{16}4,4,{8}5,3,{16}3,2,1,8,5x,6,7,8,
{8}2>5[8:1],1,8,7>2[8:1],6,5,4<7[8:1],3,
2,1>4[8:1],8,7,6-1[8:1],{16}5,5,{8}6x,4,
3>8[8:1],4,5,6>3[8:1],7,8,1<6[8:1],2,
3,4>1[8:1],5,6,7-5[12:1],8,7,1,
2x-5[8:1],5-3[8:1],2,7,{16}8x>3[8:1],7,6,5,{4}8/4,
{8}6-1[8:1],{16}4,4,{8}6,3,{16}2>5[8:1],8,3,1,{8}2,{16}6,7,
{8}8x-5[8:1],{16}4,4,{8}8,3,{4}2x<7[8:1],{8}2/4,5,
{16}5,6,7,8,2,3,4,5,A7,A6,A5,A4,A3,A2,A1,A8,
{1}7xh[4:23]/Ch[4:9],
{2},,,2-4[8:1],
5-1[8:1],8v3[8:1],
2v5[8:1],4-1[8:1],
,,{1}2pp4>8[8:9]/6pp8<4[8:9],
{16},,,,,,,,E1,B1,B2,B3,E5,B5,B6,B7,
{8}2-4[12:1],{16}1,1,{8}2,8,7-1[8:1],{16}4,4,{8}7,3,
2-5[12:1],{16}8,8,{8}2,7,{16}7,6,5,4,1,2,3,4,
{8}6-8[12:1],{16}5,5,{8}6,4,3-5[12:1],{16}7,7,{8}3,8,
1-6[8:1],{16}4,4,{8}1,3,{16}3,2,1,8,5,6,7,8,
{8}3/1,3,8/2,2,1/7,7,8/6,6,
1/5,1/5,2/6,2/6,3/7,3/7,4/8,8/4,
{16}5,1,5,1,4,8,4,8,3,7,3,7,2,6,2,6,
{32}1,8,7,6,5,4,3,2,1,8,7,6,5,4,3,2,{2}1w5[8:1],
{1}3b/7b,
{8},,,,,B1,{16},E7,,,{1}B3,
B5,
{2}E2,B6,
,B4,
{1}B8,
Ch[1:1],
{16}7-5[12:1],,,8,{8}7,1,2-8[12:1],{16}4,4,{8}2,5,
6-8[12:1],{16}1,1,{8}6,2,{16}3>8[8:1],7,4,6,{8}3,5,
{16}4<7[8:1],,,8,{8}4,1,2-5[8:1],{16}8,8,{8}2,7,
6-1[8:1],{16}4,4,{8}6,3,{16}2>5[12:1],8,3,1,{8}2,8,
7/5,7,7/6,7,7/8,7,7/1,7,
2/8,2,2/1,2,2/3,2,2/4,2,
{16}3,5,4,5,6,5,7,5,{32}8,1,2,3,4,5,6,7,8,1,2,3,4,5,6,7,
{48}8x,E1,B1,B2,{24}E3,{48}6x,E6,B5,B4,{24}E4,{16}1,1,{24}2/6,3/7,4/8,{2}1-6[12:1]/5-2[12:1],
{64}1b/5b,A2,D3,A3,D4,A4,D5,A5,D6,A6,D7,A7,D8,A8,D1,A1,{32}D2,E3,E4,E5,E6,E7,E8,E1,E2,B3,,B5,,B7,,B1,C,B4,,B2,,B8,,B6,
E5,E4,E3,E2,E1,E8,E7,E6,{64}D5,A4,D4,A3,D3,A2,D2,A1,D1,A8,D8,A7,D7,A6,D6,A5,{4}Cf,{8}3x-5[16:1]/7x-4[16:1],2x,
{4}3x/7x-1[12:1],{8}7,5,{16}4>1[8:1],6,3,5,{8}4,6,
7>2b[8:1],2<6b[16:3],7,3,{16}3,2,1,8,5,6,7,8,
{32}1x-6-8-5b[8:13]*-4-2-5b[8:13],2x/8x,3x/7x,4x/6x,{8}5x,{1},{4},,,{16}4,
3,2,1,8/5,6,7,8,1/5,4,3,2,1/8,7,6,5,
{24}2x,3,4,8x,7,6,1x,2,3,7x,6,5,{32}2x,E3,B3,B4,8x,B7,B6,E6,1x,B2,B3,E4,7x,E7,B6,B5,
{4}3x>8[8:1],{8}3,5,6-8[12:1],{16}1,1,{8}6,2,
3-5[12:1],{16}1,1,{8}3,8,{16}7<4[8:1],1,6,8,{8}7,1,
{32}1-5[8:1],2,3,4,5,6,7,8,{4}1,{16}6-8[12:1],4,,4,{8}6,3,
2-5[8:1],{16}8,8,{8}2,7,{16}7,6,5,4,1,2,3,4,
{4}6x/5xh[8:7],{32}8x,B8,,,,,,,3x,B3,,,,,,,7x,B7,,,,,,,{4}3x/8xh[8:7],
{32}5x,B5,,,,,,,2x,B2,,,,,,,6x,B6,,,,,,,{16}3,
4/3,,6,{8}6/5,{16}3,2/4,,6,{8}5/7,{16}2,1/3,,7,
{8}6/8,{16}1,1,6,6,2,2,5,5,3,3,7,7,4,4,
{1}8b-4b[4:7],
E
