&title=Live to Survive
&artist=Aimer /《刀剑神域Echoes of Aincrad》OP
&first=-0.028
&des=这寂静不语的蝴蝶给我看寂静不语了
&wholebpm=178.000
&lv_5=13
&des_5=
&inote_5=(89)
{8},,,,
,,,,
,,,{48}2x,3x,4x,5x,6x,7x,
{8}8x<5p4[3:2],,,,
,,,,
2xpp4pp6[3:1],,,,
8xz4[8:1],,,,
(178)
{8}5<8[8:1]/2,,3,,1-5[8:1]/4,,3,3,
2-5[8:1]/4,,1,,7,7h[8:1],1pp5[2:1],,
6,,7,,8,3h[8:1],4,8h[8:1],
6>3[8:1],,36,,{16}2,1,3,8,4,7,5,6,
{8}4qq8[2:1],,5,,5,,5,,
6h[4:1],,1h[4:1],,4h[4:1],,3,{16}6,6,
{8}5<2[2:1],,4,,4,,4,,
3h[4:1],,4,4-7[8:1],,1,2,{16}3,3,
{8}4pp8[2:1],,3,,3,,3,,
2h[4:1],,4h[4:1],,5h[4:1],,7,{16}3,3,
{8}4>1[4:1],,1<6[4:1],,4,4h[4:1],,7h[4:1],
,5h[4:1],,4h[4:1],,{24}1x,8x,7x,6x,5x,4x,3x,2x,1x,
{8}8x-4b[8:1],,28,,1-5b[8:1],2,15,,
46,37,,12,4/8-4b[8:1],,5,3,
1-5b[8:1],,71,,8-4b[8:1],7,84,,
53,42,,87,61,,{16}2,4,3,5,
{8}4>1[8:1],4,,7,7<4[8:1],,8,,
2,4h[8:1],3,,7,5h[8:1],6,,
8<5[8:1],8,,1,1>4[8:1],,6h[4:1],,
8h[4:1],,4,2h[8:1],1,4h[8:1],5,{16}2,1,
{8}3pp5[6:1],3,,7,7-3[8:1],,2,,
14,,25,3,46,7,16,2,
7/8>3[8:1],,4<7[8:1],,1,1h[4:1],,5-1[8:1],
,3,3,{16}8,8,5,7,4,6,3,5,2,4,
{8}1-5b[8:1],,71,,4-8b[8:1],3,24,,
17,62,,34,1/5-1b[8:1],,8,2,
4-8b[8:1],,64,,1-5b[8:1],2,13,,
46,57,,12,38,,{16}7,5,6,4,
{4}8<1[1:2],,E1/D1,,E3/D3,,E5/D5,,
E7/D7,,E1/D1/Ch[1:1],,E3h[2:1]/E7h[2:1],,,,
{8}3-5[8:1],3,7-3[8:1],7,1-7[8:1],1,5,5,
{8}86,8,17,1,24,4,35,5,
4b/6,4/6b,3,5/2b,5b/2,1,7/3b,7b/3<2[3:1],
{2},7-3[8:1],
{16}8>4[8:1],,4,,
5-2b[8:1]/8-4[8:1],,7,,
8,,,,
15,,1-5[8:1]/5-7[8:1],,
{16},,1/5,,
,,,,
6,,3,,
8,,5,,
{16}1<4[8:1],,4,,
3-7b[8:1]/1-5[8:1],,2,,
1,,,,
84,,8-4[8:1]/4-1[8:1],,
{16},,8/4,,
,,,,
2,,7,,
6/5h[8:1],,1<6[8:1],,
{16},,2,,
,,,,
8,,5,,
4h[8:1]/3,,1-5[8:1],,
{16},,6<1[8:1],,
,,,,
3-6[8:1],,3,,
7-4[8:1],,7,,
{16}1-6[8:1],,,,
5,,5<8[8:1],,
,,3/5>2[8:1],,
,,5<4[4:1]/7,,
{16},,1b/5b,,
,,,,
2,,2,,
8,,4,,
{16}1<5[8:1],,5,,
4-7b[8:1]/1-5[8:1],,2,,
1,,,,
84,,8-4[8:1]/4-2[8:1],,
{16},,8/4,,
,,,,
3,,6,,
1,,4,,
{16}8>5[8:1],,5,,
6-2b[8:1]/8-4[8:1],,7,,
8,,,,
15,,1-5[8:1]/5-8[8:1],,
{16},,1/5,,
,,,,
7,,4,,
5,,4-1[8:1]/6-1[8:1],,
{16},,64,,
,,,,
3,,8,,
1,,8<5[8:1]/2>5[8:1],,
{16},,82,,
,,,,
3,,7,,
2-6[8:1],,6-2[8:1],,
{16}2,,,,
8,,8-6[8:1],,
,,4-1[8:1]/8,,
,,7v4[8:1]/4,,
{16},,7/3v8[8:1],,
,,6-2[8:1]/3,,
,,6/1qq4[3:1],,
,,4,,
{16},,,,
,,,,
56,,6,,
67,,6,,
{16}34,,3,,
23,,3,,
75,,7,,
78,,7,,
{16}2,4,2,4,2,4,2,4,3,5,3,5,3,5,3,5,
4,6,3,6,2,6,1,6,8b-3[12:1]*-4[12:1],,8b,,,,,,
{16}2-5[8:1]/4,,,,
6,,,,
5/7-4[8:1],,,,
2,,1-5[8:1],,
{16},,5,,
7<1[4:1],,,,
8,,,,
,,,,
{8}4z8[10:19],,,,,,,,,,,,,5x-1b[16:1],
