&title=狂言「九十九星降」
&artist=凋叶棕
&first=0
&des=Mao_Yu
&lv_5=14
&des_5=Mao_Yu
&inote_5=
(158){4},,,,,E5,
{16},,,,,C,,,,,,,,,,3x,
2x,8x/1x-5[16:39],{64},,,,,,,,7,,,,,,,,,,,2,,,,,,,,,,,{32}6,
,,,,3,,,,,5,{64},,,,,,,,,4,,,,,,,,,,,{32}6,,,,,3,,,,,{16}7,
{32},,,2,,,,,{8}8,{64},,,3,,,,,,,,,,,,,{4}2,
{8}1bx,{64},,,,,,,,,,,,,,,,A8,,,,,B8,,,,,,,{16}A1,{32},E2,{64},,,,,A7,,,,,,E7,,,,,,,{32}B1,
{64},,,,,B2,,,,,,E7,,,,,,,{32}B6,,,E3,,,A3,{64},,,,,B5,,,,,,,{16}E5,{32},1,,,2,,,7,
,,{16}6,{64},2,,,,,,3,,,,,{16}6,{64},5,,,,,{32}3,,,{16}4,{32},8,{64},,,7,,,,,{16}1,{64},2,,,,,{32}7,
{64},,,6,,,,2,,,,,{16}3,{8}8b,5b/4b,{64},3,,,,,{32}5,{64},,,4,,,,,4,,,,,6,,,,,{32}4,{64},,,5,
,,,,{16}5,1,2,3,4,{8}5b,{64}5b/4b,,,,,,,,,,,6,,,,,4,,,,,5,,,,,{32}5,,3,
{64},,,5,,,,,4,,,,,4,,,,3/6h[32:9],,,,,,,,,,,,,,,,,,3q7[0.4035##0.2373],,,,,,,,5,,,,,,,,,{16}3,{32},,,5q1[0.4272##0.2136],
{64},,,,,,,4,,,,,,,,,5,,,,,,,,,4q8[0.4272##0.2136],,,,,,,,,{32}6,{64},,,,,,,4,,,,,,,,,{16}6q2[0.4272##0.2136],{64},,,,,4,,,,,,,,,{32}6,
{64},,,,,,,5q1[0.4272##0.2136],,,,,,,,,{8}7,{64},5,,,,,,,,,,,{16}6,{32},,,5/6p2[0.4035##0.2373],,,,4,
{64},,,,,,,6,,,,,,,,,,4p8[0.4272##0.2136],,,,,,,,,{32}5,{64},,,,,,,4,,,,,,,,,{16}5p1[0.4272##0.2136],{64},,,,,3,,,,,,,,,{32}5,
{64},,,,,,,3p7[0.4272##0.2136],,,,,,,,,5,,,,,,,,,3,,,,,,,,,{32}4p8[0.4272##0.2136],{64},,,,,,,2,,,,,,,,,{16}4,,,,,{8}1-5[0.4272##0.1187],
{64},2,,,,,,,,,{32}1x,{64},,,,,,,2-6[0.4272##0.1187],,,,,,,,,{16}3,{64},,,,,2x,,,,,,,,,{32}3-7[0.4272##0.1187],
{64},,,,,,,4,,,,,,,,,3x,,,,,,,,,4-8[0.4272##0.1187],,,,,,,,,{32}5,{64},,,,,,,4x,,,,,,,,,{16}5w1[0.4272##0.2136],{64},,,,,2/8,,,,,,,,,{32}5b,
{64},,,Cf,,,,,,,,,,,,,,,{32}1x>1[8:9],{1},{4},{16},,{32},E2,
,E3,{64},,,A7,
,,,E7,,,,,{16}E3,A3,{64},B6,,,,B5,,,,,{32}E4,,D4,{64},,,E6,,,,A5,,,,,{32}1x,2x,3x,5h[64:87]/4xh[32:87],{1},{4},{16},,,{64},8,
,,{16}7,{64}6,,,5xh[64:69],{1},{16},,,4,
5,{8}4,5/4,
{16}7,5,6,4,{8}5,3/4,{16}2,4,3,5,{8}4-8[8:1],3,
4x/5-1[8:1],6,5x,{16}3,4,5,6,7,8,{8}1/5,3/4,
{16}5,2,4-7[8:1],3,{8}5,3/4,{16}1-6[8:1],2,3,4,{8}1x-3[8:1],{16}4,5,
{8}1x,{16}5,4,5x,4,6,3,7-3[8:1],2,8,1,{4}7b,
,2bh[8:1]/8bh[4:1],4-6[8:1],{8}8/4b-2[8:1],2,
8/4b-7[8:1],6,8/4b-1-6[4:1],2,8/4b-7-2-5-8[4:3],6,{4}4,
3h[8:1],2h[8:1],1h[8:1],{8}1/5,2/6,
3/7,8/4,1/5,2/6,7-4[8:1]/3>3>7[1:1],4/8,{4}3x/7xh,
{8},3>3[4:3],,,7<7b[4:3],,,3b-1-7-5-3[4:3],
,,{4}6x-4-2-8-6b[8:7],,1-7-5-3-1[4:3],
{8},6x>1b[8:3],,,1-7-5-3-1[8:7]*<5b[8:3],,,5x>1b[2:1],
,,{4}8bxh,{8},,3h[4:1],7<5[8:1],
,2,{4}8-4[8:1],1>3[8:1],7-5[8:1],
1-3[8:1],8-4[8:1],{8}1-5[8:1],1,,6,
6,1,{4}5-2[8:1]/1-6[8:1],{8},,7/3,8/4,
1/5,6/2,3/7,8/4,1/5,6<8[8:1]/2>4[8:1],8/4,6/2,
,6/2,{4}8-4[8:1]/4-8[8:1],4/8,{8}6/1-6[8:1],2,
4-1[8:1],3,7-4[8:1],5,3-8[8:1],1,5,6h[4:1],
5-1[8:1],3,{4}5/3-7[8:1],3/5h[8:3],{8}1,1-3[8:1],
1-7[8:1],1bx-6[8:1],1-4[8:1],1-5[8:1],1,1,8<5[8:1],1,
2,3>8[8:1],4,5,6>3[8:1],7,8,1<6[8:1],
2,3,4>2[8:1],5,{4}6h[4:1],{8}1>4[8:1],8,
7,6<1[8:1],5,4,3<6[8:1],2,1,8>3[8:1],
7,6,5<8[8:1],4,{16}2x,3,4,5,{8}7x-2[8:1],6,
5,4-7[8:1],3,2,1-4[8:1],8,7,6-1[8:1],
4,3,2-5[8:1],8,{4}7h[8:1],{16}3,4,3,4,
{8}1b,{16}4,5,4,5,{8}2b,{16}5,6,5,6,{8}3b,{16}6,7,
6,7,5,8,4,1,3,4,1,8,4,5,{8}6/3-8[8:1],B7/E8/B8,
,B6/E6/B5,1-4[8:1],B7/E8/B8,,B6/E6/B5,1xh[4:1],B7/B8/E8,
,4xh[4:1]/B6/E6/B5,,B7/B8/E8,2xh[4:1],B6/E6/B5,,1/B7/B8/E8,
2,3/B6/E6/B5,4,2/B7/B8/E8,4,1/B6/E6/B5,4h[8:1],B7/B8/E8,
{16}1,2,3,4,{4}6xh[8:1]/5w1[8:1],{16},Cf,,,,,{8}7h[8:1]/1-5-3[4:1],
,1,8-2-7[4:1],7,5-2-4[4:1],4,,8,
{4}6h[8:1],{8}1/5,{16}6/2,7/3,{8}8/4,1h[8:1]/5h[8:1],,8/6,
7/5,6/4,5/3,4/2,3/1,8/2,{4}1-3[8:1]/7-5[8:1],
1-5[8:1]/7-3[8:1],1>4[8:1]/7<4[8:1],1/7,{16}3xh[8:1],,,4,
4h[8:1],,,5,5h[8:1],,,6,6h[8:1],,,7,7h[8:1],,,8,
1,8,2,3,7,6,3,4,6,5,2,3,4h[8:1],,,6,
6h[8:1],,,2,2h[8:1],,,8,{4}8h[8:1],{8}4/5,7/8,
4/5,1/2,4/5h[4:1],2,{4}8h[4:1],{16}5h[8:1],,,4,
3/6h[8:1],,,3,2/7h[8:1],,,2,1/8h[8:1],,,6,5/7h[8:1],,,5,
4/1h[8:1],,,4,3,6,7,3,2,7,8,2,{8}1h[8:1],{16}7,6,
{8}5/2h[8:1],{16}8,7,{8}6/3h[8:1],{16}1,8,{8}7/4h[8:1],{16}2,1,8,7,6,5,
4,7,6,5,4,6,5,4,6bz2[8:1]/3<3[8:31],,,,,Cf,{1},,,{4},,,{8},{4}8-5[4:1],
5-2[4:1],2-7[4:1],7-4[4:1],4-1[4:1],
1,{8}3,{16}7,4,{8}6,5,5/6,{16}4>1[8:1],5,
{8}4,8,7,6,3/4,{16}5<8[8:1],4,{8}5,1,
2,3,5/4h[8:3],{16}3,2,1,8,7,6,{4}5/1-4[4:1],
4-7[4:1],7-2[4:1],2-5[4:1],5-8[4:1],
8,{8}6,{16}2,5,{8}3,4,4/3,{16}6,4,
{8}5-8[8:1],1,2,3,6/5,{16}3,5,{8}4-1[8:1],8,
7,6,5/4h[8:3],{16}3,2,1,8,7,6,{8}5/2-4[8:1],2,
1-5[8:1],1,8-6[8:1],8,1-3[8:1],1,8-4[8:1],8,
7-5[8:1],7,{16}8,1,2,3,{8}4/8h[8:1],5,1/6,{16}3,5,
{8}4,4/6,3/7,8/2,6/1,{16}2,4,{8}3,2/8,
3/7,4/6,{16}5,4,6,3,7,2,8,1h[16:3],{8}6-8[8:1],5,
4-2[8:1],5,7-5[8:1],8,1-3[8:1],8,6-4[8:1],7,
8-2[8:1],7,5,{16}6,7,{8}8,1/5,{16}4,3,2,8,
7,6,3,2,1,7,6,5,8,7,6,1,2,3,8,7,
6,5,4/8,7/3,6-2[8:1]/2-6[8:1],5/1,4/8,7/3,{4}2/6/Cf,{8}3/8-5[8:1],6,
3>8[8:1],2,7,4-8[8:1],{16}7,7,4,5,,,{8}7-3[8:1],
5/2-5[8:1],7,2,8-6[16:1],{16}4-1[8:1],8,{8}3,,8-4[8:1],
6/2-6[8:1],8/4,2,7-4[8:1],{16}5/8-3[8:1],2,7x,8,,,{8}8-6[8:1],
1-3[8:1],8-4[8:1],1-5[8:1],8-6[8:1],1,8,1-4[8:1],3,
6<1[8:1],7,2,5-1[8:1],{16}2,2,5,4,,,{8}2-6[8:1],
4/7-4[8:1],2,7,1-3[16:1],{16}5,1,{8}6,8bx,7b/1b,
3b/5b,2b/8b,7b/3b,4b/6b,7b/1b,4b/2b,7b/5b,1b/8b,
4b/3b,6b/7b,{16}4,5,4,5,{4}2b/7b,{16}5,4,{8}6V82[4:1],
4,2<6[4:1],3,4,5,3,{16}5,4,6,5,
7v4[8:1],3,5,1,{4}7,{16}3/7,6/2,{8}1h[8:1]/5h[8:1],{16},,2,6,
4v7[8:1],8,2,6,{8}4,{16}6,5,{8}8,{16}3,4,{8}1,{16}8,2,
7,3,6,4,{32}8b,7,{16}6,{32}2b,3,{16}4,{32}7b,6,{16}5,{32}1b,2,{16}3,{8}6,{32}4/3x,,,5,
6,7,,,1/8x,,,2,3,4,,,6/5x,,,7,8,1,,,{8}3h[8:1]/2xh[8:1],{32},,,4,5,6,,,8/7x,
,,1,2,3,,,{8}4x/5,2/7,{4}8x/1,{24}1b,2,3,5b/4,6,7,
1b/8,2,3,5b/4,6,7,4b/8xh,3,2,8b/1,7,6,4b/5,3,2,8b/1,7,6,1b/5xh,2,3,5b/4,6,7,
1b/8,2,3,5b/4,6,7,{32}8xh/4bh,3,2,1,8bx,7,6,5,4/8bx,7/3,6/2,5/1,{8}4/8,5xh[16:1]/1xh[16:1],1xh[16:1]/5xh[16:1],
{16}2x,6x,3x,7x,4x,8x,5xh[8:1],1xh[8:1],,,{8}4xh[8:1]/8h[8:1],,2/6,
{16}3,7,4,8,5,1,3,7,{4}1h[8:1]/5h[8:1],{8}4/5,4/5h[2:1],
{16}3x,2x,1x,8x,7x,6x,4x,3x,{8}2xh[4:1],6h[8:1],,8/4h[2:1],
{16}7x,6x,5x,3x,2xw6[8:1],1x,{8}8x,{16}2b,Cf/B8/B1/B2/B3/B4/B5/B6/B7,
E
