&title=Timeline
&artist=Plum
&first=0.2
&des=hhh02081
&lv_5=14
&inote_5=(180)
{1},
{4},{16}E5,E4,E3,E2,
{4}D1/E1/6xh[4:3],,,D2/E2,,,
{4}D3/E3/7xh[4:3],,,D4/E4,,,
{4}D5/E5/8xh[4:3],,,D6/E6,,,
{4}D7/E7/1xh[4:3],,,D8/E8,,,
{8}3,3,4,2,5,1,6-1[8:1],,4x,,,,
{8}6,6,5,7,4,8,3-8[8:1],,5xh[4:1],,C,,
{8}4-1[4:1]/7,,8,8,7,6,5-8[4:1],,1,1,2,3,47,7,8,6,1,5,2h[8:5],E4,E5,E6,E7,E8,
{4}E1f/2b<4[4:2],,,7h[4:2],E5,
{8}3,2,1/7x>5[4:2],,,,,,2h[4:2],,,,
{4}6,8v5[4:1]/2xh[4:1],,3,1v4[4:1]/7xh[4:1],
{8},7,7,6,5-1[8:1],4,3,2,8,17,
{8}6/2-6[8:1],3,2/8-4[8:1],1,2/8,,2x<4[4:2]/C,,8h[8:3],,,,8-4[8:1],,C,,
{8}2,3,C/7x>5[4:2],,1h[8:3],,,,1-5[8:1],,C,,
{8}6,7,8p4[4:1]/2xh[4:1],,,,3,2,1q5[4:1]/7xh[4:1],,
{16},,6,,6,,7,,8-4[8:1],,1,,2,,3,,5,,46,,37,,2,8,1,,7,8,6,,5,,
{8}3/5b<2[4:2],,E2,,E3,,4x>7[4:2],,E8,,E7,,
{8}5x<8[4:1],,1,2,3,,4x>1[4:1],,1,8,7,,
{16}6<8[8:1],,2,3,4,,4,,7,,6,,
{16}5/3>1[8:1],,5,6,7,,7,,2,,3,,
{8}4/7-3[8:1],7,1-5[8:1],1,{16}8b-4[8:1],7,6,,1b,2,3,,35,,,,18,,,,
{16}6/4>8[4:1],,4,,8b,7,6,5,4,,4,,
{16}3/5<1[4:1],,5,,1b,2,3,4,5,,5,,
{16}64,,64,73,82,,82,,1b,,1b,,
{16}7x,6,5,4,1x,2,3,4,{32}8x,7,6,5,4,3,2,1,
{16}8b/4b,,,,2,4,3,5,4,,4h[8:1],,8,2,8,2,7,5,6,4,5,,5h[8:1],,
{16}4x,5,3h[16:1],,6x,5,7h[16:1],,3x,4,2,5,1x,2,3,4,7x,6,5,4,{32}2x,3,4,5,6,7,8,1,
{12}2xh[4:3]/6b,,5,5,,6,6,,,
{12}7xh[4:3],,1,1,,2,2,,,
{12}3xh[4:3],,7,7,,6,6,,,
{12}5xh[4:3],,2,2,,3,3,,,
{12}4x>1[4:1],,7,7,,6,6,,,
{12}5x<8[4:1],,2,2,,3,3,,,
{12}6h[12:1],5h[12:1],7h[12:1],3h[12:1],4h[12:1],2h[12:1],6h[12:1],5h[12:1],8h[12:1],
{12}2bh[4:3],D1,D2,D3,D4,D5,D6,D7,D8,
{4}D1/E1f,,,B8/C/1xh[4:2],,,
{4}B8/C/2xh[4:2],,,B1/C/3xh[4:2],,,
{4}B1/C/4xh[4:2],,,B2/C/5xh[8:7],,,
{16}6,7,8<5[8:1]b,1,2,3,4xh[4:2],,,,,,
{16}3,2,1>4[8:1]b,8,7,6,5xh[4:2],,,,,,
{16}7,8,1<6[8:1]b,2,3,4,5xh[8:1],,,,,,
{16}4,5,4,5,3,6,2,7,{24}2bh[4:1],D6,D5,D4,D3,D2,
{4}D1/E1f,,,D2/E2,,,D3/E3,,,D4/E4,,,D5/E5,,,D6/E6,,,D7/E7,,,D8/E8/3xh[4:2],,
{16}4,5,6,7,
{16}8x/1b,2,3,4,5,6,7,8,1x,,,,
{16}8b,7,6,5,4,3,2,1,8x,,,,
{16}2b,3,4,5,6,7,8,1,2x-5[8:1],,,,
{16}2x/1b,8,7,6,5x/4b,3,2,1,8x/7b,6,5,4,
{16}3x/2b,1,8,7,6,5,4,3,2x,,,,
{16}7b,8,1,2,3,4,5,6,7x,,,,
{16}1b,4,3,4,2b,5,4,5,3b,6,5,6,1b,7,2,7,1b,6,3,6,1b,5,4,5,
{16}1b,2,3,4,5-1[8:1],6,7,8,1/5x,,,,
{16}7b,6,5,4,3-7[8:1],2,1,8,7/3x,,,,
{16}2b,3,4,5,6-2[8:1],7,8,1,2/6x,,,,
{16}3x/4b,5,6,7,8x/1b,2,3,4,5x/6b,7,8,1,
{16}2x/3b,4,5,6,7,8,1,2,3xh[4:1],,,,
{16}5b,1,8,1,6b,2,1,2,7b,3,2,3,8b,7,6,5,4,3,2,1,
{16}8x/2b,3,4,5,2b,1,8,7,2b,3,4,5,{24}2b,1,8,7,6,5,
{16}4x/3b,,2,8,2,8,3,7,3,7,4,6,5b,,
{16}7,1,7,1,6,2,6,2,5,3,4bh[4:1],,
{16}8,1,2,3,4,5,8,7,6,5,1b,,6,8,7b,,3,4,2b,,5,4,
{16}6b,,3,5,3,5,2,6,2,6,1,7,8b,,
{16}6,4,6,4,7,3,7,3,8,2,1bh[4:1],,
{16}5,4,3,2,1,8,5,6,7,8,4b,,7,5,6b,,2,1,3b,,8,1,
{16}7b,,6,5,6,5,7,4,7,4,8,3,1b/2x,,
{16}3,4,3,4,2,5,2,5,1,6,8b-4[8:1]/7xh[8:1],,
{16}5,4,3,2,1,8,5,6,7,8,4b,,6,5,7b,,2,1,3b,,8,1,
{16}2x/7b,,2,1,2,1,3,8,3,8,4,7,5b/6x,4,3,2,5b,6,7,8,2b,3,4,5,8b,4,8,3,8<5[8:1],2,8,,
{24}2x-6[8:1]/8b,3,4,,,,2b/1x>4[8:1],8,7,,,,1b/7x,6,5,,,,{32}1x/7b,26,35,4,3,2,1,8,
{1}7b-3[4:17]*-3[4:17]/3x,,,,,
{4},,,1>1[2:3]*-5[4:3],1x,,
{4},,,1>1[2:3]*v4[16:9],1x,,
{4},3,2,1>1[2:3]*v3[16:6],1x,,
{4},,,1>1[2:3]*v2[16:3],1x,,,,,1>1[2:3]*>1[2:3],1x,
