&title=リリリリ★バーニングナイト
&artist=samfree
&first=0
&des=*神村@2006
&lv_6=13+
&inote_6=(165)
{4},,,,
{8}6h[2:1],5,4,,3h[8:3],5,,7h[8:3],5,,2h[8:3],4,,6,5,4,3,5,3,6h[8:3],,5,4,3h[8:3],,5,6,3,6,7,3,2,1h[8:2]/8,7,6h[4:1],,2-5[8:1],3,,,6h[4:1]/5,4,3h[4:1],,6-1[8:1],7,,,21,2,28,2,7,26,3,4,75,7,4,37,7,3,26,48,1-4[8:1]/5-8[8:1],37,,,48,2-7[8:1]/6-3[8:1],,26,,,8-3[8:1]/4-7[8:1],,48,,1b,,
{16}2,,5,,3,4,3,,8,,4,,6,5,7-4[8:1],,,,2,,3,,4,,5>2[8:1],,6,,7,,,,
7,,4,,6,5,6,,1,,5,,3,4,2-5[8:1],,,,7,,6,,5,,4<7[8:1],,3,,2,,,,
1,,6,,3,4,3,4,2,,7,,6-4[8:1],5,7,,,,2,,3,4,2,,1-5[8:1],,8,,7,,,,
8,,3,,6,5,6,5,7,,2,,3-5[8:1],4,2,,,,7,,6,5,7,,8-4[8:1],,1,,2b/8b,,,,
{8}64,6,3,6,4,6,5,6,63,3,5,3,4,3,6,3,64,6,5,6,3,6,4,6,3/5-1[8:1],,,2-6[8:1],,,8b,,
35,3,6,3,5,3,4,3,36,6,4,6,5,6,3,6,35,3,4,3,6,3,5,3,6/4-8[8:1],,,7-3[8:1],,,1b,,
2>5[4:1],,5<8[4:1],,8>3[4:1],,3<7[16:5],4,6<1[4:1],,1-5[4:1],,5>2[4:1],,6,,7<4[4:1],,4>1[4:1],,1<6[4:1],,6>2[16:4],5,2<8[4:1],,8-4[16:3],,3,,3,4,5-1[8:1],,6,7,8,,8-4[8:1],1,2-5[8:1],,,7-3[8:1],,,1-6[8:1],,12,3h[8:3],4,5,6h[8:3],3,2,1,
{16}8,7,8,7,1,6,1,6,2,5,2,5,3,4,3,4,2b/5b,,,,,,,,7b-3[8:1]/8b-4[8:1],,,,7b/8b,,,,
1q5[8:1],,1,,8-6[12:1],,8,,4,,3,5,3,,6,,7-5[8:1],,8,,1-3[8:1]/7-3[8:1],,8,,1b/7b,,,,6,,3,4,3,,6,5,6,,3,4,2,,6,5,7,,3,6,4>2[8:1]/5<7[8:1],,3,,4z8[4:1]/5s1[4:1],,,,4b/5b,,,,,,,,1q5[8:1],,1,,8-6[12:1],,8,,3,,4,5,4,,6,,7-5[8:1],,8,,1-3[8:1]/7-3[8:1],,2,,1b/7b,,,,,,3,4,3,,6,5,6,,3,4,2,,6,5,7,,3,4,2/5-2[8:1],,3,,5-1[8:1]*-8[8:1]/7,,6,,5,,,,2b/7b,,,,
1-5[8:1],,1,,7-4[8:1],,7,,3-8[8:1],,3,,5,,5-1[8:1],,,,2-4[8:1],,2,,8w4[8:1],,8,,8,,,,,,2-8[8:1],,2,,7-3[8:1],,7,,4-6[8:1],,4,,1,,1-5[8:1],,,,4-8[8:1],,4,,7w3[8:1],,7,,7,,,,,,1-4[4:1],,,,4-7[4:1],,,,7-2[4:1],,,,2-5[4:1],,,,5-1[4:1],,,,1,,,,8w4[8:1],,,,8,,,,3qq4[16:3],,3,,,,5pp4[16:3],,5,,,,3qq5[16:3],,3,,,,6pp4[16:3],,6,,,,1w5[8:1],,,,1b,,,,
1q5[8:1],,2,,8-6[12:1],,7,,4,,3,5,3,,2,1,8-6[8:1]/3,,7,,8-4[8:1]/2-4[8:1],,1,,2b/8b,,,,5,,3,4,2,,6,5,7,,3,5,1,,6,4,8,,2,5,34,,8,,2>4[8:1]/7<5[8:1],,4z8[4:1]/5s1[4:1],,2b/7b,,,,,,,,1q5[8:1],,2,,1/8-6[12:1],,7,,38,,4,5,4,,7,8,1-3[8:1]/6,,2,,1-5[8:1]/7-5[8:1],,8,,1b/7b,,,,4,,6,5,7,,3,4,2,,6,4,8,,3,5,1,,6,5,7/4-8[8:1],,6,,4w8[8:1]/2,,3,,4,,,,2b/6b,,,,
1-5[8:1],,2,,7-4[8:1],,8,,3-8[8:1],,2,,5,,5-1[8:1],,,,2-4[8:1],,3,,8w4[8:1],,7,,8,,,,,,2-5[8:1],,3,,6-1[8:1],,7,,4-8[8:1],,3,,7,,7-3[8:1],,,,1-5[8:1],,2,,6w2[8:1],,7,,6,,,,,,1-4[4:1],,1,,4-7[4:1],,4,,7-2[4:1],,7,,2-5[4:1],,2,,5-1[4:1],,5,,1,,1,,8w4[8:1],,7,,8,,,,3qq4[16:3],,3,,,,5pp4[16:3],,5,,,,3qq5[16:3],,3,,,,6pp4[16:3],,6,,,,1w5[8:1],,,,1b,,,,3qq4[16:3],,2,,,,5pp4[16:3],,6,,,,3qq5[16:3],,2,,,,6pp4[16:3],,7,,,,1w5[8:1],,,,1b,,,,
56,,2,,3,4,3,4,1,,7,,6,5,7-3[8:1],,,,8,,1,,2-6[8:1],,3,,4,,5,,,,
43,,7,,6,5,6,5,8,,2,,3,4,2-6[8:1],,,,1,,8,,7-3[8:1],,6,,5,,4,,,,
34,,8,,3,4,3,4,25,,7,,6,5,7-3[8:1],,,,8,,1-5[8:1],,2,,3-7[8:1],,4,,5,,,,
56,,1,,6,5,6,5,47,,2,,3,4,2-6[8:1],,,,1,,8-4[8:1],,7,,6-2[8:1],,5,,4b/6b,,,,
34,,56,,1,8,27,,3,,
{24}4,5,4,
{16}36,,7,,1b/8b,,4b/5b,,,,,,
E
