&title=フラグメンツ -T.V. maimai edit- [SD]
&artist=発熱巫女~ず
&first=0
&des=我错了
&lv_5=13+
&inote_5=(160)
{1},
{8},7,7,,6pp4[4:4]/3,,2,2h[8:7],
{1},
{8},2,2,,3qq5[4:4]/6,,7,7h[8:7],
{1},
{8},28,28,,7h[16:4]/3^6[16:4],,,,
{4}8h[16:4],5h[16:4],7h[16:4],{8}2,2,
{4}1h[16:4],4h[16:4],2h[16:4],{8}3,3,
{4}4h[16:4],2h[16:4],6h[16:4],{8}5,5,
{8},7,7,,6pp3[8:5]/3,,,,
{8}3,,2,2h[16:6],,4,4,,
{8},2,2,,3qq6[8:5]/6,,,,
{8}6,,7,7h[16:6],,5,5,,
{8},17,17,,6^3[16:4]/2h[16:4],,,,
{4}1h[16:4],4h[16:4],2h[16:4],{8}3,4,
{4}8h[16:4]/2,5h[16:4],7h[16:4],{8}6,5,
{4}2h[16:4]/8,4h[16:4],5h[16:4],{8}8pp4[16:12]*qq4[4:3],8,
{4},,{16},,,,,,,,
{4}3h[16:4],4,6h[16:4],5,
{8}2,3,4,5^2[16:2],,7,7,,
{4}6h[16:4],5,3h[16:4],4,
{8}7,6,5,4^7[16:2],,2,2,,
{4}3h[16:4]/4,2,6h[16:4]/5,7,
{8}8,1,2,3^6[16:2],,7,7,,
{4}3h[16:4]/4,1,6h[16:4]/5,8,
{8}17,26,3/5h[16:4],,{16}3,5,,5,4,,36,,
{8}2b-4[16:2]/7,,8,,5-3[16:2],5,7,,
{8}6,6,5-8[16:2],6,,{16}3,,3,,,,
{8}1-5[16:2],,7,7h[16:4],,3,3h[16:4],,
{8}4,,2pp1[16:5]/6,15,,8,8,,
{8}7b-5[16:2]/2,,1,,4-6[16:2],4,2,,
{8}3,3,4^1[16:2],3,,{16}6,,6,,,,
{8}8-4[16:2],,2,2h[16:4],,6,6h[16:4],,
{8}5,47,3h[16:3]/8,{16},4,2h[16:3],,,6,5h[16:4],,7,,
{8}8b^5[16:2],,4,,3-1[16:2],3,4-6[16:2],,
{8}8,8,7-4[16:2],6,,{16}2,,35,,,,
{8}2-6[16:2],,7,7h[16:4],,{16}5,,5h[16:4],,,,
{8}6,,4qq5[16:5]/3,25,,7,7,,
{8}1b^4[16:2],,5,,6-8[16:2],6,5-3[16:2],,
{8}1,1,2^5[16:2],3,,{16}7,,64,,,,
{8}7-3[16:2],,2,2h[16:4],,{16}4,,4h[16:4],,,,
{16}3,,,,17,,26,,3/5h[16:2],,4,5,,6,5,,
{8}4-1[16:2]/7,,6p4[16:4],6,,2,2,,
{8}3-8[16:2]/7,,6p4[16:4],6,,1,1,,
{8}2-7[16:2]/7,,6p4[16:4],6,,8,8,,
{8}1-5[16:2],,7-4[16:2]*-3[16:2],7,,,18,,
{8}5-8[16:2]/2,,3q5[16:4],3,,7,7,,
{8}6-1[16:2]/2,,3q5[16:4],3,,8,8,,
{8}7-2[16:2]/2,,3q5[16:4],3,,1,1,,
{8}8h[16:4],,5-3[16:2],5-7[16:2],,,,,
{32}2^7[4:2],3,4,,,,,,{4}6h[4:2],,,
{32}7>3[4:2],6,5,,,,,,{4}4h[4:2],,,
{32}3>6[4:2],4,5,,,,,,{4}7h[4:2],,,
{32}1/7<8[4:2],26,3/5h[32:22],,,,,,{4},,,
{16}17,,26,,35,,4,6,4,,7,5,7,,8,,
{16}8,,17,,26,,3,4,3,,6,5,6,,4,,
{16}4qq8[16:8],,6,,6,,6,,6,,6,,6,,,,
{16}1,7,1,7,2,6,2,6,3,5,3,5,3,5,3,5,
{16}4bqq8[16:6]*pp8[16:6],,,,,,,,,,,,2,1,2,1,
{16}3q8[4:1]/8b^5[8:1],,,,8^3[4:1],,,,3^6[4:1],,,,6pp3[2:1]*<3[2:1],,6,,
{16},,,,,,,,,,5,,45,,,,
{16}3^6[8:1],,,,6qq3[8:3]/3,,,,3,,,,8,,8h[8:3],,
{16},,1,,1-3[8:1]*-4[8:1],,,,1-6[8:1]*-7[8:1],,,,1,,,,
{16}5-2[8:1],,,,4v7[8:1]*-8[8:1]/5,,,,4-1[8:1],,,,3v6[8:1]*-7[8:1]/4,,,,
{16}3-8[8:1],,,,2v5[8:1]*-6[8:1]/3,,,,2-7[8:1],,,,1v4[8:1]*-5[8:1]/2,,,,
{16}1^6[4:1],,,,6^3[4:1],,,,3V14[16:5]*pp4[16:5],,,,,,,,
{16},,,,45,,,,3,4,,6,5,,78,,
{16}6p1[4:1]/1b^4[8:1],,,,1^6[4:1],,,,6^3[4:1],,,,3qq6[2:1]*>6[2:1],,3,,
{16},,,,,,,,,,4,,54,,,,
{16}6<3[4:1],,,,3qq6[8:3]/6,,,,6,,,,4,,4h[8:3],,
{16},,5,,5^7[8:1]*^2[8:1],,,,5-8[8:1]*p1[8:1],,,,5,,,,
{16}4-7[8:1],,,,5p1[8:1]*-2[8:1]/4,,,,5-8[8:1],,,,6-3[8:1]*p2[8:1]/5,,,,
{16}6-1[8:1],,,,7-4[8:1]*p3[8:1]/6,,,,7-2[8:1],,,,8-5[8:1]*p4[8:1]/7,,,,
{16}8b>7[2:1]*q7[2:1],,,,,,,,,,,,,,,,
{16}1b/2b,,3,4,3,,7,5,7-3[16:2],,8,,17,,2,,
{16}2-5[16:2],,5,,6<3[16:4],,7,,,,4,,4,,,,
{16}8b/7b,,6,5,6,,2,4,2-6[16:2],,1,,82,,7,,
{16}7-4[16:2],,4,,3>6[16:4],,2,,,,5,,5pp4[16:4],,,,
{16}1b,,,,2h[16:2],,,,3h[16:2]/4h[16:2],,,,5h[16:2]/7h[16:2],,,,
{16}8^5[16:2],,,,4-7[16:2]/8^3[16:2],,,,8-4[16:2]/4,,,,8,,,,
{16}1^4[16:2],,,,5-2[16:2]/1^6[16:2],,,,1-5[16:2]/5,,,,1,,,,
{16}4^1[16:2]/8^5[16:2],,,,8q5[16:2]/4-7[16:2],,,,4w8[16:2],,,,,,,,
{16}7b/4b,,6,5,6,,2,4,2-6[16:2],,1,,82,,7,,
{16}7-4[16:2],,4,,3>6[16:4],,2,,,,5,,5,,,,
{16}5b/2b,,3,4,3,,7,5,7-3[16:2],,8,,17,,2,,
{16}2-5[16:2],,5,,6<3[16:4],,7,,,,4,,4-1[16:2],,,,
{16}8b,,,,7h[16:2],,,,6h[16:2]/5h[16:2],,,,4h[16:2]/2h[16:2],,,,
{16}1^4[16:2],,,,5-2[16:2]/1^6[16:2],,,,1-5[16:2]/5,,,,1,,,,
{16}8^5[16:2],,,,4-7[16:2]/8^3[16:2],,,,8-4[16:2]/4,,,,8,,,,
{16}5^8[16:2]/1^4[16:2],,,,1p4[16:2]/5-2[16:2],,,,5^8[16:2],,,,2qq5[4:3],,2,,
{1},
{8}3,4,5,6h[16:4],,4,5,6,
{8}6,5,4,3h[16:4],,{16}5,4,5,,36,,
{8}7,6,5,4h[16:4],,6,5,4,
{16}35,,2,,46,,7,8,7,,16,,2h[16:4],,,,
{8}4h[16:4],,5h[16:4],,6h[16:4],,4,4qq6[16:12],
{1},
