&title=彷徨いの冥~天~
&artist=少女フラクタル with 二羽凛奈 & 朔間咲
&first=0
&des=Dororo
&lv_5=13+
&inote_5=(160)
{1},,
{16}3h[8:3],,,,,,4h[8:3],,,,,,5,,,,
{16}3h[8:3],,,,,,4h[8:3],,,,,,5>1[4:1],,,,
{16}6,,,,4<8[4:1],,,,3,,,,5p4[2:1],,,,
{16}8h[2:1],,,,,,,,,,,,2b/6b,,,,
{16}5x/B2/B3/E3f,,5,,,,5,,,,5,,,,5,,
{16}4x/B7/B6/E7f,,4,,,,4,,,,4,,,,4,,
{16}6x-1[8:1]/5x,,6h[4:1],,,,,,3x-8[8:1]/4x,,3h[4:1],,,,,,{16}2x-5[8:1]/7x-4[8:1],,,,2b/7b,,,,3,6,3,6,2,7,1,8,
{16}2-6[8:1],,,,7^2[8:1],,,,3-7[8:1]*-5[8:1],,,,3,,,,
{16}4-1[8:1],,,,7-3[8:1],,,,8-5[8:1]*-3[8:1],,,,8,,,,
{16}2h[4:1],,4,,6,,2,,8h[4:1],,4,,6<4[3:1],,8,,
{16}2xh[4:1],,,,,,,,45,,6,3,7,2,8,1,
{16}7-3[8:1],,,,2^7[8:1],,,,6-2[8:1]*-4[8:1],,,,6,,,,
{16}5-8[8:1],,,,2-6[8:1],,,,1w5[8:1],,,,1,,,,
{16}37,,4-1[8:1],,6,,4,,,,5-8[8:1],,3,,5,,
{16}1x,,8x/2x,,3x/7x,,4xq1[8:1]/6xp1[8:1],4xb/6xb,,,,,A1f/D1/D2,,,,
{16}3h[1:1]/7,,,,,,,,,,,,,,,,
{16}E4,,,,E3,,,,E2,,,,E1,,,,
{16}2h[1:1]/6,,,,,,,,,,,,,,,,
{16}E4h[2:1]/B4h[2:1]/E5h[2:1],,,,,,,,8,,,,,,,,
{16}6h[1:1]/2,,,,,,,,,,,,,,,,
{16}E6,,,,E7,,,,E8,,,,E1,,,,
{16}7h[1:1]/3,,,,,,,,,,,,,,,,
{16}5qq5[2:1]*pp5b[2:1],,,,,,,,,,,,,,,,
{16}8h[8:1]/3-5[8:1],,,,8h[8:1],,,,8h[8:1]/4-1[8:1],,,,8h[8:1],,,,
{16}2^8[8:1]/7,,,,6qq4[8:1],,,,2^8[8:1],,,,6,,,,
{16}5h[8:1]/1-4[8:1],,,,5h[8:1],,,,5h[8:1]/3-7[8:1],,,,5h[8:1],,,,
{16}8,,8,,6,,5,,1,,4,,37,,,,
{16}1h[8:1]/6-4[8:1],,,,1h[8:1],,,,1h[8:1]/5-8[8:1],,,,1h[8:1],,,,
{16}7-1[8:1]/2,,,,3v5[8:1],,,,7-1[8:1],,,,3,,,,
{16}4h[8:1]/8-5[8:1],,,,4h[8:1],,,,4h[8:1]/6-2[8:1],,,,4h[8:1],,,,
{16}1,,1,,2/8^5[8:1],,7,2^5[8:1],8x,,,2x,,,1x,,
{16}3bqq5[8:3]/7b,,3,,5,,7,,8x-4[8:1],,8,,4,,3,,
{16}6pp4b[8:3]/2,,6,,4,,2,,1x-5b[8:1],,1,,5,,6,,
{16}3^8[8:1]/7,,3,,6^3[8:1],,6,,1^6[8:1],,1,,4,,4,,
{16}5bq1[8:1]*p1[8:1],,,,5bqq4b[4:1]*pp6b[4:1],,,,5b,,,,,,,,
{16}B7h[32:57]/A7h[4:7]/B3h[32:59]/A3h[32:60]/Ch[32:58],,,,,,,,,,,,,,,,
{16},,,,,,,,,,,,,,,,
{16}1x/2x,,,6x/7x,,,3x/4x,,2-6[8:1]/5^8[8:1],,,,2b/5bqq1[2:1],,,,
{16}7h[2:1],,,,,,,,,,7,6,5,4,3,2,
{16}1x/8x,,,,27,,,,36,,,,4b/5b,,,,
{16}2-5[8:1],,1,,8,,1-5[8:1],,8,,7,,8^3[8:1],,,,
{16}4-1[8:1],,5,,6,,5-1[8:1],,6,,7,,6^3[8:1],,,,
{16}2qq7[8:3]/6,,,,24,,5qq5[4:1],,,,5<4[8:3],,,,1h[8:3],,
{16},,,,,,,,5,,3,,26,,3,5,
{16}3-5[8:1],,3,,1,,2-6[8:1],,2,,8,,1^4[8:1],,,,
{16}6-4[8:1],,6,,8,,7-3[8:1],,7,,1,,8^5[8:1],,,,
{16}1w5[8:1],,,,1,,,,2-5[8:1]/8q5[8:1],,,,28,,,,
{16}6,5,7,4,8,3,1,2,{32}8,7,6,5,4,3,2,1,{16}8b/4b,,,,
{16}7-4[8:1],,8,,1,,8-4[8:1],,1,,2,,1^6[8:1],,,,
{16}5-8[8:1],,4,,3,,4-8[8:1],,3,,2,,3^6[8:1],,,,
{16}7pp3[8:3]/3,,,,75,,4pp4b[4:1],,,,4>5b[8:3],,,,1h[8:3],,
{16},,,,,,,,4,,6,,73,,6,4,
{16}6-2[8:1],,,,65,,5-8[8:1],,,,15,,1-6[8:1],,,,
{16}3-7[8:1],,,,34,,4-1[8:1],,,,84,,8-3[8:1],,,,
{16}1<5[4:1],,,,5>1[4:1],,,,1,,,,5,,,,
{16}2h[8:1],,3h[8:1],,4h[8:1],,5h[8:1],,6h[8:1],,7,,1b/8b,,,,
{16}25,,4,,3,,8,,47,,5,,6,,1,,
{16}2h[8:1]/8h[8:1],,,3h[8:1]/7h[8:1],,,4>6[4:1]/6<4[4:1],,,,,,,,,,
{16}2,4,2,4,3h[8:1],,8,,7,5,7,5,6h[8:1],,1,,
{16}28,,4pp1[8:3],,5,,7h[8:3],,,,,,,,,,
{16}2h[8:1],,4,3h[8:1],,5,4,,5v8[8:1]/3v8[8:1],,,,35,,,,
{16}7h[8:1],,5,6h[8:1],,4,5,,4v5[8:1]/6v5[8:1],,,,64,,,,
{16}2h[8:1],,1,3h[8:1],,4,3,,7h[8:1],,8,6h[8:1],,5,6,4,
{16}5^8[8:1],,,,{24}1qq6[8:3]*pp4[8:3],2,3,{16}4,,1b,,,,,,,,
{16}E3/B3,,,,,,E1/B8,,,,,,,,,,
{16}E7/B7,,,,,,E5h[8:5]/B4,,,,,,,,,,
{16},,,,,,,,,,,,,,,,
{16}3,,4,,5,,3h[8:3],,,,,,,,,,
{16}6,,5,,4,,6h[8:3],,,,,,,,,,
{16}12,,,,2,,6,,47,,,,8,,3,,
{16}2/4pp5[2:1],,,,,,,,,,,,,,,,
{16}7,,6,,5,,7h[8:3],,,,,,,,,,
{16}2,,3,,4,,2h[8:3],,,,,,,,,,
{16}87,,,,7,,3,,52,,,,1,,6,,
{16}5h[1:1]/7,,,,E4,,E3,,E2,,E1,,E8,,E7,,
{16}E6h[1:2],,,,,,,,,,,,,,,,
{16}E4h[1:1],,,,,,,,E5hf[2:1],,,,,,,,
{16},,,,1xb/8xb,,,,7-4[8:1]/3-8[8:1],,8,,73,,,,
{16}1^6[8:1],,2,,3,,4^1[8:1],,5,,6,,7-3[8:1],,,,
{16}2qq6[8:3],,,,24,,5qq5b[4:1],,,,5<4b[8:3],,,,8h[8:3],,
{16},,,,,,,,6,,4,,37,,6,4,
{16}6-1[8:1],,,,67,,7p2[8:1],,,,78,,8^5[8:1],,,,
{16}3-8[8:1],,,,32,,2q7[8:1],,,,21,,1^4[8:1],,,,
{16}8-3[8:1]*-5[8:1],,,,8w4[8:1],,,,8,,,,1b/7b,,,,
{16}2,4,3,5,4,6,5,7,8,6,1,7,2,8,3,1,
{16}4-6[8:1],,3,,2,,3-7[8:1],,2,,1,,2-5[8:1],,2,,
{16}8-2[8:1],,7,,6,,7-3[8:1],,6,,5,,6-1[8:1],,6,,
{16}4qq4[4:1],,,,48,,7^5[8:1],,,,5x/7>5[4:1],,,,1h[8:3],,
{16},,,,{32}6x,7x,8x,1x,2x,3x,4x,5x,{16}6xv8[8:1]/2xv4[8:1],,,,2b/6b,,,,
{16}3-5[8:1],,8,,1,,7-3[8:1],,1,,8,,2,,4,,
{16}6-4[8:1],,1,,8,,2-6[8:1],,8,,1,,7,,5,,
{16}4^1[8:1]/8^5[8:1],,,,4-7[8:1]/8-3[8:1],,,,4/8-4[8:1],,,,8b/2b,,,,
{16}3,4,2,5,1,6,8,7,{32}1,2,3,4,5,6,7,8,{16}1b/5b,,,,
{16}5-3[8:1],,6,,7,,6-2[8:1],,7,,8,,7-4[8:1],,7,,
{16}1-7[8:1],,2,,3,,2-6[8:1],,3,,4,,3-8[8:1],,3,,
{16}5pp5[4:1],,,,51,,2^4b[8:1],,,,4x/2<4b[4:1],,,,8h[8:3],,
{16},,,,{32}3x,2x,1x,8x,7x,6x,5x,4x,{16}3xqq1[8:1]/7xqq5[8:1],,,,7b/3b,,,,
{16}2x/6x,,3,4,3,,2x/6x,,3,5,3,,2b/8b,,28,,
{16}7x/3x,,6,5,6,,7x/3x,,6,4,6,,7b/1b,,71,,
{16}2q6[8:1]/6,,,,2/8^3[8:1]*^5[8:1],,,,8w4[8:1],,,,8b,,,,
{16}1,7,1,7,2,6,3,5,4,6,4,6,3pp6[1:1],7,2,8,
{16},,,,,,,,,,,,7pp2b[1:1],,,,
{16},,,,,,,,,,,,,,,,
{16}3h[8:5],,,,,,,,,,4h[8:6],,,,,,
{16},,,,,,5pp6q8[8:20]*qq4p2[8:20],,,,,,,,,,
{16},,,,,,,,,,,,,,,,
{16},,,,,,,,,,,,,,,,
{16},,,,,,,,,,,,,,,,
{16},,,,,,,,,,,,,,,,
E
