&title=回る空うさぎ
&artist=orangestar/Calkyon/初音ミク
&first=-0.1
&des=FantHua
&des_6=FantHua
&lv_6=13
&inote_6=(120){4},,,,,,,,4/5h[4:3],
3,2,1h[1:1],
6,7,{2}8h[4:1],
{4}8/1h[4:1],8,7/2h[4:1],7,
6/3h[4:1],6,{2}5/4h[4:1],
{4}5h[2:1],6,6h[2:1],7,
7h[2:1],8,8h[4:1],1,
1-4[8:1],1/4,4-6[48:7],6/4,
6-1[8:1],6/1,{2}8-5[12:1]/1-4[12:1],
{8}6h[8:3],4,3,2,7h[8:3],5,4,3,
8h[4:1],6,5,4,1h[4:1],7,6,5,
2h[8:3],4,5,6,1h[8:3],3,4,5,
8h[4:1],2,3,4,7h[4:1],1,2,3,
{2}5-8[8:1]/4-1[8:1],8<5[16:1]/1>4[16:1],
{4}5b/4b,8b/1b,{2}7b/2b,
{4}4>8[8:1],4h[4:1],8>4[8:1],8h[4:1],
4-1[8:1],4h[4:1],8-4[8:1],1h[4:5],
{8},,,2,3,,,3,
4<4[2:1],,,,,,,8,
7,,,7,6,,,6,
{4}5,4,{2}4b,
{8}5h[1:1],4,3,2,,3,2,1,
1h[1:1],5,6,7,,8,7,6,
5h[1:1],4,3,2,,3,2,1,
1h[8:7],5,6,7,,8,7,6,
{2}1>4[8:1]/5<8[8:1],8<5[8:1]/4>1[8:1],
{4}1-4[2:1],5-8[4:1],,,{2}4-8[8:1]/8-4[8:1],
8>5[8:1]/4<1[8:1],
1-5[8:1]/5-1[8:1],{4}5/1h[4:1],8,
{8}1>1[0##2],B4,B5,B6,,8,1>1[1:1],2,
,B4,B5,B6,,8,1<1[1:1],2,
,B5,B4,B3,,2,1<1[8:7],8,
,B2,B3,B4,B5,B6,B7,B8,
{4}8-6[8:1]/1-5[8:1],8-4[8:1]/1-3[8:1],{2}8-6[8:1]/1-5[8:1],
{4}5<1[4:1],1>5[4:1],{2}C,
{4}1-3[8:1]/8-4[8:1],1-5[8:1]/8-6[8:1],{2}1-3[8:1]/8-4[8:1],
{4}4>8[4:1],8<4[4:1],{2}4>8[4:1],
{4}4p2[8:13],4,5,5,
6,6,7,7,
8p6[2:1],8,1,1,
7b/2b,6b/3b,{2}5bh[4:1]/4bh[4:1],
{8}5-1[16:1],4,5,2,4-8[16:1],3,4,1,
3-7[16:1],4,3,6,2-4[16:1],1,2,5,
{4}4<8[4:1],8>4[4:1],{8}4-8[8:1],,,7h[4:1],
,,8/1,3,1/2,8,7,6,
5-1[16:1],4,5,2,4-8[16:1],3,4,1,
3-7[16:1],4,3,6,2-4[16:1],1,2,5,
{4}4<8[4:1],8>4[4:1],{8}4-8[8:1],,,7h[4:1],
,,8/1,3,1/2,8,7,6,
{4}5/1-7[4:1],7-3[4:1],{2}3-5[4:1],
{8},4,5,4,{2}7-5[8:1]/2-4[8:1],
{8}2-5[4:1],C,5-3[4:1],C,3<4[8:1],5,6,7,
6/5,4,3,2,5/4,1,8,7,
5/6,2h[8:1],1h[8:1],8h[8:1],4h[8:1],1h[8:1],8h[8:1],7h[8:1],
3h[8:1],8h[8:1],7h[8:1],6h[8:1],4h[8:1],8h[8:1],1h[8:1],2h[8:1],
4h[8:1],7h[8:1],8h[8:1],1h[8:1],5h[8:1],8h[8:1],1h[8:1],2h[8:1],
6h[8:1],1h[8:1],2h[8:1],3h[8:1],5h[8:1],1h[8:1],8,7,
5b-1[16:1]/7b-3[16:1],4,5/7,2,4b-8[16:1]/6b-2[16:1],3,4/6,1,
3b-7[16:1]/5b-1[16:1],4,3/5,8,2b-4[16:1]/7b-5[16:1],1,2b/7b,8,
1>5[4:1],C,5<1[4:1],C,1>5[4:1],C,5,Cf,
,E8,E1,E2,7,8,1,2,
6h[4:1]/4-8[16:1],3,4b,2/5h[4:1],3-7[16:1],2,3b,5/8,
6h[4:1]/1-5[16:1],2,1b,3/7h[8:1],2b-4[16:1],3,2b/6h[8:1],5,
{4}7/2,{8}1/5-2[16:1],8,7/5,6,5/1-4[16:1],6,
{4}1/7h[8:1],{8}7/2,6/3,{4}7/2,{8}7,6,
{4}1b/2b,4/5,7b/8b,1/2,
{8}2>5[8:1],6,7,8,{4}8b<5[16:1]/1b>4[16:1],8b/1b,
{8}1>5[4:1],C,5<1[4:1],C,1>5[4:1],C,5,Cf,
{4}1b,8b/2b,7b/3b,6b-1[16:1]/4b-1[16:1],
{64},E7/E4,{32}B8/B2,,,,,,,{8}7-3[16:1],8,5b-2[16:1],6,4-7[16:1],3,
2b-6[16:1],1,7-3[16:1],8,5b-2[16:1],6,4-7[16:1],3,
,,3/4,6,7/8,4,1/2,5,
8b/1b,6,7b/2b,4,{4}8b/1b,7b/2b,
1>5[4:1],5<1[4:1],1>5[4:1],5<5[1:1],
E7,B7/B6,B7/E7/B6,B7/B6/E8/E6,
1,2,3,4,
7/B3,6/B2,8/B4,7/B3,
{8}6,5,4,3,6,5,4,3,
5,4,3,2,4,1,2,3,
3,4,5,6,3,4,5,6,
4,5,6,7,5,8,7,6,
4/8<5[8:1],3,2,1,4/5<8[8:1],3,2,1,
5/1>4[8:1],6,7,8,5/4>1[8:1],8,7,6,
B5/B6,B4,B3,B2,B5/B4,B6,B7,B8,
E4/B4,E3,E2,E1,E6/Cfh[4:3],E1,E8,E7,
E
