&title=ギャラリア
&artist=柊キライ
&first=0.57
&des=tigus
&lv_5=13.0
&inote_5=(104){1}2h[1:2]/7h[1:2],,
{16},,1,1,
{4}1pp4[3:1],
{8},7h[8:1],,,
{4}6qq3[3:1],6/2qq7[3:1],2,5h[4:1],
{8}4h[8:1],3h[8:1],2,1hx[16:1],
{4}8<5[4:1],5>2[4:1],2<7[4:1],7pp3[4:1],,1>4[6:1],1/7v2[6:1],5>2[6:1],5V71[6:1],
{16},,2<7[6:1],3,4,,,,,,5-8-6[4:1],4,3,,,,
{8},4v1>6[2:1],
{4}5h[8:1],6h[8:1],7h[8:1],8h[8:1]/1v4[6:1],7h[8:1],6h[8:1]/3-7>2[8:3],A3,
{8}5,,5V31[6:1],,
{16}5/8>4v7[3:1],,6h[16:1],,
{4},
{8},3h[16:1],2<7[6:1],,2>5[6:1],,
{16}2,1h[16:1],,,
{8},6,5-7-1-3[2:1],
{4}4h[8:1],4h[8:1],4h[8:1],
{8}4h[8:1],8>3[8:1]*<5[8:1],,8w4[8:1],,
{8}8,
{24},E6,B6/A6,B7/A7,,,,,,
{12}1,3,7,1-4[8:1]*-3[8:1],7,3,
{4}1-6[8:1]*-7[8:1],1,
{12}5,4,3,5-1[8:1],6,7,
{4}5/1w5[8:1],1,
{8}1-5[12:1],2,1/8-6[12:1],7,8-4[12:1],2,8/1-5[12:1],2,
{8}1/7-5[12:1],3-1[12:1],7,3,
{16}2-5[12:1],1,7,8,2,,D4,,
{12}1,1,1,8<5[8:1]*V64[8:1],8,8,
{4}8>3[8:1]*V24[8:1],8,
{12}1/5,1/5,1/5,3-7[4:1]/7-3[4:1],3/7,3/7,
{2}3-6[6:1]/7-2[6:1],
{8},,1,2h[16:1]/3h[8:1],,,5,6h[8:1]/7>8v3>1v4<5[2:1],,,,,,,
{16}3-5-1<5[1:3],5,4,6h[16:1],
{8},,3h[8:1],,4,3h[8:1],,,5,D5/E5/A4,D4/E4/A3,,5,E5/D5/E4/D4/A4/B4,D2/D3/E2/E3/A2/B2,,2h[8:1],,3h[8:1],,4h[8:1],,4,3,
{4}3h[2:1],C,,3v6V42[2:1],3,
{8},1h[16:1],8-6-1-5[2:1],,,4h[16:1],3v8q4[2:1],,,
{16}5,6,
{4}7,
{8},4,4>4[1:1],
{4}5h[8:1],4h[8:1],3h[8:1],2h[8:1],
{8}8>3[6:1],7,6,E3,,
{4}1<6[6:1]/8,1/3-1v4-6[2:1],
{8},
{16}7v5>3[2:1],7,7,,
{4},
{16}8>2q3[2:1],8,
{8}8,
{4},
{16}6,6,
{2}6h[8:3],
{8}5>2[12:1],4,5V71[12:1],6,5-1[12:1],3-7[12:1],5>1<6>5[8:5],3,5,,1x,,6x,,C,,
{8}1-3[12:1]/5,5,
{24}6h[24:1]/1<6[12:1],,6h[24:1],
{8},4/1>3[12:1],4,5/1,5,1-3[12:1],1-7[12:1],
{2}1-5[12:1],
{16}2-7[8:1],5,2,5,
{4}2-6[8:1]/6h[8:1],7h[8:1]/2v5[8:1],2/8h[8:1],
{8}1h[16:1]/2pp5[2:1],1h[16:1],B8/E8,B1/E2,B8/E8,B5/E6,
{4}B8/E8,C,
{12}8b,1,2,8V24[12:1]*-3[12:1],7,6,
{4}8V64[12:1]*-5[12:1],8,
{12}3-8[12:1],2,1,3-6[12:1],4,5,
{4}3-7[12:1]*s7[12:1],3,
{8}1-4[12:1],5-8[12:1],1,5,
{16}1-5[12:1],6,8-4[12:1],7,1b,,8b,,
{8}2-6[12:1],1,8-4[12:1],7,
{16}8/1,2,3,4,
{4}5,
{12}4<7[8:1],4,4,2<7[8:1],2,2,
{4}8xV64[8:1]*-2-4[8:1]b,8,
{12}6v3[12:1],5,4,2,1,8,
{8}2-6[12:1]b,8-4[12:1]b,2b,8b,
{4},E7,E6,E5,
{2}E4/Ch[2:1],
{4},
{16}2<2-8-6-4-2<1<8<7<6>5>2[1:4],1,8,7,
{1},,
{4},,1x,8x,7x,6x,5x,,
{2},
{4}4<8[4:1],8>4[4:1],4V68[4:1],8V24[4:1],4w8[4:1],
{2},
{16}3-6[8:1],8,3,8,
{4}3-7[8:1]/7h[8:1],6h[8:1]/3v8[8:1],3/5h[8:1],
{8}1h[16:1]/2pp5qq2[1:1],1h[16:1],
{16}E1,,E7,,1,,7,,B1,,B8,,B7,,,,
{1}7h[4:7],2h[4:3],
{12}1bpp4[6:1],1,1,5pp8[6:1],5,5,
{4}2h[8:1],2h[8:1],
{12}8qq5[6:1],8,8,4qq1[6:1],4,4,
{4}7h[8:1],7,
{8}6,6,5,5,4,4,3,3,
{16}2-6[12:1],,1-5[12:1],,2,,1,,8,7,6,5,4,,,,
{8}1-5[12:1],7-3[12:1],1,7,2-6[12:1],8-4[12:1],2,8,3-7[12:1],5-1[12:1],3,5,4,6,,
{64}4,5,6,7,8,1,2,3,4,5,6,7,8,1,2,3,4,5,6,7,8,1,2,3,4,5,,,,,,,
{8}1h[8:1],2,,8h[12:1],7,6h[16:1],,
{4}5b,
{64}4,3,2,1,8,7,6,5,4,3,2,1,8,7,6,5,4,3,2,1,8,7,6,5,,,,,,,,,
{12}1b,3,7,1b-4[8:1]b*-3[8:1]b,7,3,
{4}1b-6[8:1]b*-7[8:1]b,1b,
{12}5b,4,3,5b-1[8:1]b,6,7,
{4}5b/1bw5[8:1]b,1b,
{8}5b-1[12:1],6,5b/4b-2[12:1],3,4b-8[12:1],6,4b/5b-1[12:1],3,
{8}5b/7b-5[12:1],3b-1[12:1],7b,3b,
{16}6-1[12:1]b,5,3,4,6b,,D8f,,
{12}1b,1b,1b,8b<5[8:1]b*V64[8:1]b,8b,8b,
{4}8b>3[8:1]b*V24[8:1]b,8b,
{12}1bx/5bx,1b/5b,1b/5b,3bx>7[4:1]b/7bx<3[4:1]b,3b/7b,3b/7b,
{2}3bv6[6:1]b/7bv2[6:1]b,
{8},,1,2h[16:1]/3h[8:1],,,5,6h[8:1]/7>5[2:1],,,,,,,
{16}7qq3<4[1:3]*pp3>2[1:3],8,1,2,
{2},B5/B6/E6,B8/B1/E1,
{1},,
{4},
{16}E5/B4/B5,E1/B1/B8,Ch[16:1],
E
