&title=Drowning Love
&artist=坂本秀一
&first=0.59
&des=早田安希 For the 22th
&lv_3=13+
&inote_3=(160)
{12}6,5,7,3,4,2,6,5,7,3,4,2,7,8,6,2,1,3,7,8,6,2,1,3,
{12}6,7,8,3,2,1,6,7,8,4,3,2,5,6,7,3,2,1,6,7,8,1,2,3,
{12}47,8,1,7,8,1,7,8,1,8,1,1b,3,4,5,3,4,5,3,4,5,4,5,5b,
{12}2,1,8,2,1,8,2,1,8,1,8,8b,6,5,4,6,5,4,6,5,4,5,4,4b,
{12}1x>3[12:1],8,7,6x<8[12:1],5,4,3x<5[12:1],2,1,8bx,7,6,
{12}4b,5,3,4,2,5,1,8,5,6,4,7,
{12}2-5[8:1],,2,7-4[8:1],,7,1-6[8:1],,1,8-3[8:1],,8,4-8[8:1],,4,5-1[8:1],,5,
{12}3-8[8:1],,3,6-1[8:1],,6,B5/E5/A5/A4/B4/E4f,,,7x-4[8:1],,7,2-5[8:1],,2,8-4[8:1],,8,
{12}2-4[8:1],,2,6-8[8:1],,6,3-5[8:1],,3,7-1[8:1],,7,
{12}4b,3,2,5,6,7,3,2,1,6,7,8,2,1,8,7b,8,1,2,3,4,5,6,7,
{12}1x-4[8:1],,18,8x-5[8:1],,81,2x-5[8:1],,27,7x-4[8:1],,72,3x-8[8:1],,36,6x-1[8:1],,63,
{12}4x-1[8:1],,45,5x-8[8:1],,54,
{12}3,2,1,2x,3x,4x,3,2,1,8,7,6,3,2,1,8,7,6,8,7,6,8bx,7bx,6bx,
{12}8x-4[8:1],,81,1x-5[8:1],,18,7x-4[8:1],,72,2x-5[8:1],,27,6x-1[8:1],,63,3x-8[8:1],,36,
{12}5x-8[8:1],,54,4x-1[8:1],,45,
{12}6,7,8,1x,8x,7x,6,7,8,1,2,3,6,7,8,1,2,3,1,2,3,1bx,2bx,3bx,
(80)
{12}1x-3-5-7-1b[12:11],2,4,6,8,1,,,,,,,,,,
(160){12}2,1,3,8,4,7,5,6,4,5,3,4,2,5,1,6,8,7,
(80){12}8>8[12:11],A1f,A2f,A3f,A4f,A5f,A6f,,,,,,,,,
(160)
{12}7,8,6,1,5,2,4,3,5,4,6,5,7,4,8,3,1,2,
{12}1bx/8bx,2x,3,18,7x,6,18,2x,3,18,7x,6,18,2x,3,18,7x,6,18,2x,3,18,7x,6,
{12}4bx/5bx,3x,2,45,6x,7,45,3x,2,45,6x,7,45,3x,2,45,6x,7,45,3x,2,45,6x,7,
{16}1bx/5,26,37,48,5,6,7,8,
1bx/5,26,37,48,5x,6x,7x,8x,
{12}
1x/4bx,3,2,15,8,7,
2/6bx,5,4,37,2,1,
7bx,8,1,52,3,4,
1bx/5bx,6,7,84,1,2,
{1}3bh[4:1],
{1}Chf[1:1],1b,Chf[1:1],2b,Chf[1:1],3b,Chf[1:1],4b,
Chf[1:1],5b,Chf[1:1],6b,Chf[1:1],7b,Chf[1:1],B1/B2/B3/B4/B5/B6/B7/B8/E1/E2/E3/E4/E5/E6/E7/E8/A8f,
{12}3,4,1,6,5,8,3,4,1,6,5,8,3,4,2,6,5,7,3,4,2,6,5,7,
{12}3,5,2,6,4,7,3,5,2,6,4,7,3,5,1,6,4,8,3,5,1,6,4,8,
{12}1bx,2,3,24,3,4,35,4,5,46,5,6,
{8}7bx-2[8:1]/1bx,,3bx-6[8:1]/7bx,,5bx-1[8:1]/3bx,,4bx-8[8:1]/5bx,,
{12}7-4[8:1],,7,2-5[8:1],,2,8-3[8:1],,8,1bx,,1bx,
{24}1bx,8,1,8,1,8,1bx,8,1,8,1,8,1bx,8,1,8,1,8,1bx,8,1,8,1,8,
{12}1^4[12:1],7,6,
1^6[12:1],6,5,
1^4[12:1],5,4,
1-5[12:1],6,5,
1^4[12:1],7,6,
1^6[12:1],6,5,
1^4[12:1],5,4,
1,6,5,
{24}3,4,3,4,3,4,{12}2h,2h,2h,
{24}6,5,6,5,6,5,{12}7h,7h,7h,
{24}3,5,3,5,3,5,{12}1h,1h,1h,
{24}6,4,6,4,6,4,{12}8h,8h,8h,
{12}1x/8x-4[12:1],7,7,1-5[12:1]/8,2,2,1/8-4[12:1],7,7,
{12}1-5[12:1]/8,2,2,1/8-4b[12:1],7x,7x,1x/8x,,,
{32}4bx,3x,2x,1x,8x,7x,6x,5x,4bx,3x,2x,1x,8x,7x,6x,5x,
{24}3bx,5x,3,5,3,5,2bx,6,2,6,2,6,1bx,7,1,7,1,7,8bx,8,8,8,8,8,
{64}8bx,1bx/7bx,2bx/6bx,3bx/5bx,
{1}4bpp4b[1:3]*qq4b[1:3],
