&title=名探偵連続殺人事件
&artist=てにをは
&first=0
&des_5=chrt
&lv_5=13
&des=chrt
&inote_5=(140){4},,,,{16}5h[8:1]/4>1[8:2],,,,4,,5h,5h[16:1],,,6h[8:1]/8q3[8:2],,1hx[8:1],,,,1h[8:1],,,,2h[8:1]/4x-8[8:1],,,54,,6h,,7h[16:1],A1,,,,E2,B2/8bh[16:1],,,,7bh[16:1]/B3,,,,6bh[16:1]/E4,,,,5bh[16:1]/A4,,,2,3,4,8,7,6,4,5,4,5,4,5,3b/6xb,,,,
1-7[8:1]/2-6[8:1],,1/2,,1-5[8:1]/2-4[8:1],,,,,,,,6x-4-8[8:2],,B1/B2/E2,,8-5[8:1],,1,,2,,3,,4h[8:2],,,,B7/B6/E7,,3-8[8:1],,8-5[8:1],,6h[8:1],,,,B4/B3/E4,,B1/B2/E2/7h[8:1],,,,7,,1,,3h[8:1],,7,,5h[8:1],,,,1b/7b,{32},,E2,B2,B3,E4,,,,,,,,,{16}6hx[8:4],,5,,4,,3,,2-6[8:1],,1-4[8:1],,,,,,E8,,B7/3x-6[8:1],,B6,,3,,{32}E7,B7,B8,E1,{16},,4x,,1,,8<5[8:1]/4>1[8:1],,,,8-4[8:1]/4-8[8:1],,,,,,,,B6/E7/E3/B2,,B7/B8/B4/B3,,E6/D6/E2/D2,,E8/D8/E4/D4,,Ch[8:2],,,,,,7-3[8:1],,3-5-1[8:2],,7,,2h[8:1],,,,E8/B7/B8,,,,8-4[8:1],,4-2[8:1]*-6[8:1],,8,,,,,,B6/B2,,B7/B1,,E8/E1,,A8,,,,7/1,,53,,4,6,4,6,3,5,3,5,3-6[8:1],,6-1[8:1],,7,,7,,8x-3[8:1],,8-5[8:1],,,,,,,,2,,7-2[8:1]/3-6[8:1],,26,,7-4[8:1]/3-8[8:1],,,,,,,,5<8[8:1]/1>4[8:1],,,,15,,,,1x-6[8:1]*-4[8:1],,1,,1,,,,C/B6/B4,,,,5-8[8:1]/4-1[8:1],,63,,4>1[8:1]/5<8[8:1],,,,,,,,C,,B8,,B4,,B6,,B2,,B7,,B3,,B5,,B1f,,,,,,,,8-5[8:1]/1,,8,,1-4[8:1]/8,,1,,8<5[8:1]/1,,8,,81,,2,,3,,4v2<6[8:3],,5,,4,,5bh[8:1],,,,5-8[8:1],,5,,5-2[8:1],,,,A7/5,,,,7q3[8:1]*p3[8:1],,7,,7,,,,A5h[8:2]/A1h[8:2],,,,E1h[8:2]/E5h[8:2],,,,E6h[8:2]/E2h[8:2],,,,,,,,7v1[8:1]/3v1[8:1],,,,,,,,B8/A8/E8/A2/E2/B2,,,,8h[8:1]/2h[8:1],,,,82,,73,,64,,5,,C,,,7,7,,3,,6-3[8:1],,,,2-7[8:1],,,,5-8[8:1],,5,,1-4[8:1],,1,,7-2[8:1],,7,,3-6[8:1],,3,,1b-4[8:1],,,,,,,,5x-8[8:1]/6x-1[8:1],,,,,,,,B2/B3/E3,,8,7,6,,4,3,2qq4[8:2],,5,6,7,,7x,,6hx[16:1],,5hx[16:1],,5xb,,,,3-7[8:1],,3,,2-6[8:1],,2,,1-5[8:1],,1,,8-4[8:1],,8,,A3f,,,A1f,,,A6f,,,A8f/Ch[16:5],,,,,,,7h[8:1],,,,7,,3,,8,3,7,3,6b,,,,
7z3>2[16:3]/2s6<7[16:3],,7h[16:1]/2h[16:1],,72,,,,8bx-5b[8:1],,1bx,2bx,3bx,,B4/E4,,4,,4v2[8:1],,2<6[8:2],,8x,,5,,,,5h[8:1],,4-8[8:2],,4h[8:2],,,,,,,,5h[8:2],,,,4,,3,,B6/B3,,B2/B7,,E8/E2,,,,E1,,C,,E5,,,,52,,3,4,3,,6,5,6,,4,5,4,,54,,63,,72,,6-2[8:1]/3-7[8:1],,72,,6b/3b,,,,,,,,8h[8:2]/1h[8:2],,,,,,,,7-5[8:1],,2-4[8:1],,7,,2,,8-5[8:1],,1-4[8:1],1,8-6[8:1],,1-3[8:1],,8,,1,,5,5,5,,4,,4,,B4,,C,,5,,5,,B5,,C,,3,,C/3,,B7,,A7,,A6h[8:1]/D6h[8:1]/E6h[8:1],,,,A2h[8:1]/E2h[8:1]/D2h[8:1],,,,A7/A6/E7/B7/B6/C/B2/B3/E3/B8/B1/B5/B4,,7x-2>7[16:8],,7x,,7x,,,,,,,,,,1-4[8:1],1,1,,8,,7,,6,,B6,B7,E8,,,,8,,8,,B8,,C,,1,,1,,B1,,C,,7,,C/7,,B3,,A3,,4x,5,6,,8x,1,2,,34,,52,,16,,78,,7pp2<7[8:4],,7,,7,,,,B3/E4f/A3,,,,A6/E6/B6f,,,,B8/B1/E1f,,B7/B2,,B3/B6,,,,
6-1[8:1]/3-8[8:1],,8/1,,63,,,,{32}E8/E2,B7/B2,B6/B3,E6/E4,{16},,5/4>1>4[8:4],,5/4,,5h[8:1]/4,,,,5h[8:1],,,,B7h[8:2]/E7h[8:2]/B6h[8:2],,,,,,,,4,,5,,5,6h[16:1],,,7h[8:1],,C,,2h[8:1],,C,,8,1,8,1,8,1,8,1,8,1,8,1,8,,,,
2,1,2,,1b/3b,,2b/8b,,7,8,7,,8b/6b,,7b/1b,,8xqq6[8:1]/2xpp4[8:1],,82,,82,,A4/A6,,B7/B3,,,,7<2[8:2]/2,,72,,2>7[8:2]/7,,,,,,,,1q6[8:1]*p4[8:1],,,,1,,,,3xqq7[8:2],,3,,3,,,,A6,,D6,,A5f,,,,43,,3,4,3,,56,,5,6,5,,5-2[8:1]/4-7[8:1],,54,,5-1[8:1]/4-8[8:1],,,,,,,,7h[8:2]/2h[8:2],,,,,,,,6h[8:2]/3h[8:2],,,,,,,,8-4[8:1],,4-8[8:1],,8,,,,,,1,2,3,,7,6,5,,C,,E8,,E2,,6s2>3[16:3]/3z7<6[16:3],,6h[16:1]/3h[16:1],,63,,,,5xb-8b[8:1],,2bx,3bx,4bx,,B4/E4,,4xv2[8:1],,2<6[8:2],,8,,5,,5,,,,5h[8:1],,,,5-8[8:2]/4h[8:2],,,,,,,,3h[8:1],,,,81,,8-5b[8:4]/1-4b[8:4],,,,A8f/A1,,B2/B7f,,,,,,,,,,,,54,,4,5,4,,6,3,6,,2,7,2,,81,,72,,63,,7-3[8:1]/2-6[8:1],,63,,7b/2b,,,,,,,,5h[8:2]/4h[8:2],,,,,,,,4-2[8:1],,5-7[8:1],,4,,5,,4-1[8:1],,5-8[8:1],5,4-2[8:1],,5-7[8:1],,4,,5,,1,1,1,,,,8x,,8x-2[8:1],,8x-3[8:1],,8x-4[8:1],,8x-5[8:1],,8x,,8x,,,,6x,,6x,,6x-8[8:1],,6x-1[8:1],,6x-2[8:1],,6x-3[8:1],,6x,,6xb,,,,,,,,7h[8:1]/2qq4[8:2],,,,6h[8:1],,,,5h[8:1],,,,4h[8:1],,,,6h[8:1],,,,3h[8:1],,,,4,5,4,5,3,6,3,6,2,7,2,7,1,8,1,8,E2,B2,B3,E4,A4,8,7,6,5,4,3,2,1,,6b/2bx,,6bh[8:6]/2bh[8:6],,,,,,,,,,,,,,E6/E2,B5/B1,B4/B8,E4/E8,A3/A7,E
