&title=Lockdown (feat.NEONA)
&artist=PIKASONIC & Tatsunoshin
&first=0
&des=MikanStar & Citrus*
&lv_5=14
&des_5=MikanStar & Citrus*
&inote_5=
(175){4},,,,4h[8:1]/5h[8:1],
4h[8:1]/6h[8:1],{8}7h[8:1],4h[8:1],6h[8:1],3h[8:1],
{4}5-7[8:1],5,{8}4h[8:1],3h[8:1],2h[8:1],1h[8:1],
{1}8q1[1:1],
{2},7h[4:1],
{4}1h[8:1]/8h[8:1],8h[8:1]/2h[8:1],{8}3h[8:1],8h[8:1],2h[8:1],7h[8:1],
{4}1-3[8:1],1,{8}8h[8:1],7h[8:1],6h[8:1],5h[8:1],
{1}4q5[1:1],
{4},,3h[4:1],4h[4:1],
{2}5b>1[8:5],{4}6,{8}7,8-5[8:5],
,,,,,,{4}3,
{2}4<8[8:5],{4}3,{8}2,1h[4:1],
,8-5[8:3],,2,,3,{4}4-2[8:1],
{2}4,{4}5h[4:1],{8}2h[8:1],3-1[8:1],
,3/4h[8:3],,,{4}8h[4:1],{8}6h[8:1],1>5[2:1],
,,,,,6,7,8,
{4}1p5[8:1],{8}1,3p7[8:1],,3,{4}4-8[8:1],
,,1h[4:1],{8}6h[8:1],7-5[8:1],
,7/8h[8:3],,,{4}4h[4:1],{8}2h[8:1],5<1[8:5],
,,,,,,2,3,
{4}4p8[8:1],{8}4,6p2[8:1],,6,{4}1-5[8:1],
,,6p5[2:1]/4q7[2:1],6/4,
,,3q4[2:1]/5q6[2:1],5/3,
{8},,,,,3,5,4,
{4}5-1[8:1],{8}5/3,2-6[8:1],,2/8,,,{2}7h[2:1],
8>4[8:5],
{4}7,{8}6,5-7[8:1],,5/3q5[2:1],,3/8h[8:7],
,,,,,,4,3,
{4}2v5[8:1],{8}2/8,7-4[8:1],,7/3,,,{2}2h[2:1],
1<5[2:1],
{4}3,{8}2,1-3[8:1],,1/7q1[2:1],,7/4h[4:3],
,,,,,8,7,6,
{4}5-1[8:1],{8}5/3,3-8[8:1],,3/7-4[8:1],,7/1,
{4}1-3[8:1],{8}1,5h[8:3],,,3,4h[4:1],
,,7,6h[8:3],,,2,3h[4:1],
,,8,7h[8:3],,,{4}2h[4:1],
4h[4:1],8h[4:1],6h[4:1],{8}1,1h[8:3],
,,{4}8<5[4:1],5>2[4:1],{8}2-6[16:3],2,
,,{4}8h[4:1],4h[4:1],{8}1h[8:1],5h[8:1],
{16}1,5,1,5,2,6,2,6,3,7,2,8,4,6,3,5,
{4}1b-5[2:1],{8}8,2,,,{4}1-5[8:1],
1b,4/6,{8}3h[8:1],5h[8:1],2h[8:1],4h[8:1],
{4}1-3[8:1],6/1-7[8:1],1/4,{16}1,2,3,4,
{8}5/6,8,6/5,3h[8:1],8v5[8:1],2,8,{24}1v6[8:1],2,3,
{8}4,2/1,3,4,{24}8/5,7,6,5-1[8:1],,,,,,{8}5,
2,8,3,7,4/6,2,5/3,7,
1>4[8:1],8,7,6,5<8[8:1],4,3,2,
{16}1,2,3,4,5,6,7,8,{4}5/1h[4:1],5h[4:1],
{8}2,3,4/6,7,{4}5/8<5[8:1],{24}8/5,4,3,2,1,8,
{8}7>2[8:1],6,5,4,{4}3-8[8:1],7v4[8:1],
{8}7,8,1,2,3/5,6,{16}7/4,3,2,1,
{8}8/7,6,1/5,2,3v8[8:1],7-4[8:1],3,7,
,8,1,2,4/3,5,2/6,1,
{1}7h[8:13]/8b<2[4:5],
{8},,,,,,1,2,
3,{24}8b/4,7,6,{8}5-1[8:1],3,5,2v5[8:1],3,{24}2/1-4[8:1],8,7,
{8}6,1b<6[8:1],{24},,,1/5v8[8:1],4,3,{8}2,5,4,3b-8[8:1],
,7-3[8:1],,1-5[8:1],,1/8,7,6b-2[8:1],
,4v1[8:1],,7-3[8:1],,8/7,{4}1v4[8:1],
{8}1,{24}8b-3[8:1],7,6,{8}5,7/8,6,5,4h[8:1],1b-5[8:1],
,6/1-3[8:1],,1/4<7[8:1],,4,3,2q6[8:1],
,2,1,8-4[8:1],,8,{16},,2,2,
{8}8,1q3[2:1],7,1,,8,7,6,
5b/4,7-5[8:1],,7/4,3,2,1,8/7-4[8:1],
,2-6[8:1],,5-8[8:1],,5,4,3h[4:1],
,1h[4:1],,2h[4:1],,1,8,7v4[8:1],
,7/1-5[8:1],,1/6-2[8:1],,6,{4}4h[4:1],
{8}1,{24}3/8b,7,6,{8}5v8[8:1],2-6[8:1],5,2,7h[4:1],{24}8v5[8:1],1,2,
{8}3h[8:1],8-2[8:1],,8/6v1[8:1],,3/6,4,5-2[8:1],
,5/8,7,6h[4:1],,1h[4:1],{16},,8,8,
{8}1b,7/2,6/3,2/5h[4:1],,2,3/6,5/4,
{4}2-4[8:1],{8}2,5h[8:3],,,2,3h[4:1],
,,7,6h[8:3],,,1,2h[4:1],
,,8,7h[8:3],,,{4}1h[4:1],
5h[4:1],3h[4:1],1h[4:1],{8}2,2h[8:3],
,,{4}8<5[4:1],5>2[4:1],{8}2-6[16:3],2,
,,{4}1h[4:1],5h[4:1],{8}1h[8:1],5h[8:1],
{16}8,1,2,3,4/6,7,8,1,5,4,3,2,{32}1/8,7,6,5,4,3,2,1,
{1}8b/4bw8[0.6857##0.1714],
{8}1/7,6h[8:1]/2-4[8:1],,2-8[8:1],5-7[8:1],2,5,{24}2,3,4,
{8}5,{24}8bv3[8:1],7,6,{8}5h[8:1],8,,6/2,7/3,4/8<5[8:1],
3,8/2-6[8:1],,2b,,7/3,6/2,5/1>4[8:1],
6,1/7-3[8:1],,7b,,4/2,{4}1/5h[4:1],
{32}8,1,2,3,{8}4b/8b-6[8:1],,8/4,3,2/5,1,8/4b<7[8:1],
{24},,,4/8-4[8:1],1,2,{8}3,8b,,5/3,6/2,7/1bq5[8:1],
,1,8,7-3[8:1],,7/4h[4:1],{16},,2,2,
{8}4b,1/3,8/2,7/1h[4:1],,7,6,5/1-5[8:1],
4h[8:1],1b-3[8:1],,1/6,7,8<5[8:1],4,{24}8/4-8[8:1],3,2,
{8}1,4b,,1v6[8:1],,1,8,7-5[8:1],
1-3[8:1],7v4[8:1],1,7b,,5/3,6/2,7/1-5[8:1],
2,1/7-4[8:1],8,7b,,2h[8:1],7h[8:1],{32}1,2,3,4,
{8}5/1b<6[8:1],6,5,4,3>8[8:1],4,5,6,
7<4[8:1],8,1,2,3-1[8:1],4,5/3,6,
{16}7,8,7,8,6,1,6,1,5,2,5,2,4,3,4-1[8:1],3,
{32}5b,6,7,8,{8}4b/1,{32}8b,7,6,5,4/2b,1,8,7,{8}6h[4:1],8b,{4}8b,
{1}8<1[8:7],
8<1[8:7],
4>5[8:7],
4>5[8:7],
1-5[4:5],
7-3[4:5],
4-1[4:3],
{16}5-8[4:1],,,,,,,,,2q3[16:19],{1},{4},,{16},,,5,
4,6,3,7,2,8,{4}1-5[1:1],
,,,,{1}8b,
E
