&title=ヨツラノヘシカ
&artist=Rafutsuri × Mused
&first=-0.005
&des=陈尧咨
&lv_5=14
&des_5=陈尧咨
&inote_5=
(150){4},,,,,,,,,,,,,,,,3/6h[2:1],
2,1-6[16:3],{8}5,5h[4:1],
,4,{4}3h[4:1],{8}E2,E1,,1/7,
{4}1/7h[2:1],3,4>1[16:3],{8}8,8h[4:1],
,5,4,3,{4}2pp4[8:1]/7qq5[8:1],2/7,
6/3h[2:1],7,8>3[16:3],{8}4,4h[4:1],
,5,{4}6h[4:1],{8}E8,E1,,1/2,
{4}1/2h[2:1],3,4-7-5[4:1],{8}8,8h[8:3],
,E6,E7,E8,E1,1x/2x,2x/1x,{16}3,3,
{8}2/5,3,4/7,{16}6,5,7,1,,1,{8}7,3,
7/4,6,5/2,{16}3,4,2,8,,8,{8}2,6,
2/5,3,4/7,6h[8:1],{16}3,4,,5,{8}4,6/3,
7x/1x-5[8:1],2,1x/7x-3[8:1],6,7x/1x>4[8:1],2,{4}1b/7b,
{8}6/4,3,4/2h[8:1],{16}1,2,7-4[8:1],8,,8,{8}7,2,
3/5,6,5/7h[8:1],{16}8,7,2-5[8:1],1,,1,{8}2,7,
4/6,3,2/5,3h[8:1],{16}6,5,,4,{8}5,3/6,
2/8,1h[16:3],{16}7,7,1-5[8:1],8,{8}2-4[16:1],1b,{4}2b,
4x-1[2:1],6,6,6,
{8}7,1x/7xh[4:1],,1,{4}2-4[8:1],2/5,
5x-8[2:1],3,3,3,
{8}2,8x/2xh[4:1],,8,7,6-3b[16:1],3,6b,
{4}1>4[4:1],4<7[4:1],7>2[4:1],2>5[4:1],
5<1[4:1],1>5[4:1],5,7h[4:1],
{16}4,7,4,7,3,5,3,5,1,7,4,6,2pp5[2:1],8,3,5,
{8}2,{24},,,,,,E7,B7,B8,{4}E1,{8}3/7,1,
{4}2x-5[8:1]/4x-8[8:1],2x/4x>1[8:1],4x/7x,{8}2/6-1[8:1],5,
2-5[8:1],3,{24}6-3-5-1b[16:5],7,8,1h[8:1],,,{4}6bx,{8}7,6,
{4}5xv8[8:1]/1xv4[8:1],5x/1xV75[8:1],1x/3x,{8}6/2v5[8:1],3,
7>2[8:1],6,{24}2-5-8-6b[16:5],3,4,5h[8:1],,,{4}2bx,{8}4,3,
{4}2x-4[8:1]/8x-4[8:1],2x-6[8:1]/8x-6[8:1],2x/8x,{8}5/7-4[8:1],8,
7/1-6[8:1],2,1/3-7b[8:1]*-8[8:1],4,{4}A3f,{8}2/6,4,
3/8-2>4[8:1],{16}7,7h[16:3],,,,,{8}6/5<7-1[8:1],{16}4,4h[16:3],,,,,{8}2/8,
3,{24}6>7[4:1],4,6,4,,,{8}E2f/B2/B1,{16},,,,3,4,
{8}2,{16}2,8,{8}1,{16}6,5,{8}7,{16}7,1,{8}8v3[8:1],2/1,
6/8p4[8:1],7,4/8<2[16:3],2,8,{16},,,,6,5,
{8}7,{16}7,1,{8}8,{16}3,4,{8}2,{16}2,8,{8}1v6[8:1],7/8,
3/1q5[8:1],2,5/1>7[16:3],7,1,{16},,,,3,4,
{8}2,{16}8,1,{8}7,{16}7,5,{8}6,{16}3,4,{8}2<7[8:1],1/8,
6/2V46[8:1],5,2/8-3[8:1],7,{4}8/1-6[8:1],8<5[8:1]/1>4[8:1],
{8}8b/1b,{16},,,,3,4,{8}2,2-6[8:1],1,2/8h[8:1],
,7/5,4/6,3/5,{4}4q8[8:1]/2-6[8:1],2-4[8:1]*-8[8:1],
2,{8}7/4,{24}6,5,7,{16}2-6[8:1],1,3,8,{4}2,
{16}7,,,6-4<5-7>8[2:1],,,{8}E4,{2}B2h[4:1],
{16}1,,,2-5>4-1[2:1],,,{8}B7,{2}E6h[4:1],
{16}7,,,8-2<1-6[2:1],,,{8}E5,{2}B3h[4:1],
{16}2,,,1,,,{8}8/7h[2:1],E1/B1,E7/B6,B4/E5,E3/B2,
{16}8/1<6[8:1],,,2,{8}1,3,{4}4-1[8:1],B7h[8:1],
{16}1/8>3[8:1],,,7,{8}8,6,{4}5-8[8:1],B2h[8:1],
{16}7/1-6[8:1],,,2,{8}1,3,{4}4>1[8:1]*<7[8:1],4,
{16}1/7,,,6/2,,,{8}5/3h[2:1],B6/E6,E4/B4,E2/B2,E8/B8,
7x/5x,6,5/2,{16}3,4,3,4,{8}3,2/7,6,
2/5,3,4/7,{16}6,5,6,5,{8}6,7/2,8,
3/1,2,1/6,{16}7,8,7,8,{8}7,6/3,2,
6/1,7,8/3,{16}2,1,3-6b[16:1],5,,5,{4}3b,
8b<5[4:1],5>2[4:1],2b<7[4:1],7<4[4:1],
4b>8[4:1],8<4[4:1],4b,2h[16:3],
{16}5,2,5,2,6,4,6,4,8,2,5,3,7,1,6,4,
{24}E8,E7,E6,E2,E3,E4,D8,D7,D6,D2,D3,D4,{2}8x-5[8:1]*-3[8:1],
{4}1bh[8:1]/7bh[8:1],{16}2,6,4,6,8,6,4,6,2,6,4,6,
{8}8h[4:1],5,7h[4:1],5,{16}2,2,7,8,6>3[8:1],4,{8}7h[8:1],
{4}6b,{16}3,6,5,7,1,6,5,7,3,6,5,7,
{8}2h[8:1],{16}6,7/5,,3,{8}4/2,{16}1/8,2/7,3/6,4/5,,1-5[16:1]/6-1[16:1],{8}1/6,
{4}6b/1b,{16}7,3,5,3,1,3,5,3,7,3,5,3,
{8}1h[4:1],4,2h[4:1],4,{16}6,6,5,8,4-7[8:1],6,{8}2h[8:1],
{4}4b,{16}6,3,4,2,8,3,4,2,6,3,4,2,
{8}8-4[8:1],7,8/6-2[8:1],5,6/4-8[8:1],3,{4}4/2qq5<4b[4:15],
{48}2/7,B7,Cf,B3,{1},,,{4},,,{16},,{24},{2}3h[4:1]/4-8[8:1],
{8}1<5[8:1],2,{4}1/3,
{2}3h[4:1]/4-8[8:1],{8}1<5[8:1],2,{4}1/3,
3h[8:1]/4h[8:1],5h[8:1]/2h[8:1],{8}1,1,{32}1x,2x,3x,4x,1x,8x,7x,6x,
{4}1bh[4:1],{8}8z4[8:1],6/2,{4}C/8?z4b[0##0.2],{8}6/3,8,
{4}7x-4[8:1]/5x-1[8:1],7x/5x<8[8:1],5b/2b,{16}3-8[8:1],4,{8}2,
3/7-4[8:1],6,{24}7/3-6-4-8b[16:5],2,1,8h[8:1],,,{4}3b,{16}1,2,3,4,
{4}1x-6[8:1]/5xv2[8:1],5x/1xV35[8:1],1b/7b,{16}7v4[8:1],5,{8}6,
7/2<7[8:1],3,{24}2/7-3<4-1b[16:5],6,5,4h[8:1],,,{4}7b,{16}5,6,7,8,
{4}1x-5[8:1]/2x-4[8:1],2x-6[8:1]/1x-7[8:1],1b/2b,{16}3-8[8:1],6,{8}4,
3/5-2[8:1],6,5/7v4b[8:1]*p3[8:1],8,{4}A7f,{8}6/2,8,
6/1-7<5b[8:1],{16}2,2h[16:3],,,,,{8}3/4>2-8b[8:1],{16}5,5h[16:3],,,,,{8}7/8,
1,{32}1xv4[8:1]*v6[8:1],2,3,4,5,6,7,8,{4}1/Cf,{8}7b/3b,{16}5,4,
{8}6h[8:1],{16}8,7,{8}2h[8:1],{16}1,3,{8}5h[8:1],{16}4,6,{8}8-3-5[8:1],2/7,
4/8V26[8:1],2,6/8<5-2-4b[4:1],7,8,{16},,,,3,5,
{8}2h[8:1],{16}1,3,{8}7h[8:1],{16}8,6,{8}4h[8:1],{16}5,3,{8}1-6-4[8:1],7/2,
5/1V73[8:1],7,3/1-3<4-8-6b[4:1],2,1,{16},,,,7,8,
{8}6,{16}4,5,{8}3,{16}3,1,{8}2,{16}7,8,{8}6V82[8:1],5/4,
2/6-4[16:1],4,2/6<1[8:1],1,{4}6/3<6[8:1],3/1>8b[48:7],
{48}1b,A2f,A3,A4,A5,A6,{8}A7,{16},,2,1,{8}3,3-7[8:1],4,3/5h[8:1],
,6/8,7/1,8/2,{4}3/1w5[8:1],1,
6/3h[2:1],7,8-3[16:3],{8}4,4h[4:1],
,5,{4}6h[4:1],{8}E8,E1,,8/2,
{4}8/2h[2:1],6,5<8[16:3],{8}1,1h[4:1],
,4,5,6,{4}7qq5[8:1]/2pp4[8:1],7/2,
3x/6xh[2:1],2,1<6[16:3],{8}5,5,
,3x/6x,4,5,{2}6-1[8:1]/3-8[8:1],
{4}7x/2xh[2:1],6,5h[8:3],{8}8,8,
{16}1,5,1x,5,{8}2-5-2[16:3]/6-1-6[16:3],3/7,{2}2/6,
E
