&title=弱虫モンブラン (Reloaded)
&artist=DECO*27
&first=0
&des=KRN_SK & MY180
&des_5=KRN_SK & MY180
&des_6=はっぴー modified by KRN_SK
&des_7=はっぴー modified by KRN_SK
&lv_5=13+
&lv_6=12+
&lv_7=超
&inote_5=(124)
{1},,
{8}1/2,1/2,C,,7/8,7/8,C,,
{8}3/4,3/4,C,,5/6,5/6,C,,
{8}2/8,2/8,C,,1/7,1/7,C,,
{8}5/3,3/5,C,,4/6,6/4,C,,
{8}1/3,1/3,2x/C,,2/4,2/4,3x/C,,
{8}6/8,6/8,7x/C,,5/7,5/7,6x/C,,
{8}1/8,2/7,C/B2/B7,,4/5,3/6,C/B3/B6,,
{4}1x/B6/B5,8x/B3/B4,3x/B8/B7,6x/B1/B2,
{8}8x-4[8:1]/1x,2h[8:1],8,1,1x-5[8:1],7h[8:1],1,8,
{8}8x<5[8:1],1,2,3,4x>1[8:1],5,6,7,
{8}1x-5[8:1]/8x,7h[8:1],1,8,8x-4[8:1],2h[8:1],8,1,
{8}1x>4[8:1],8,7,6,5x<8[8:1],4,3,2,
{8}3qq4[4:1],2,5pp4[4:1],6,5,,C,2,
{8}6<2[4:1],,2v4[4:1],,4,,C,2,
{8}1v3[8:1],1,7,8,1v4[8:1],1,3,2,
{8}1-5[8:1],28,,,1v6[8:1],28,,,
{8}1>4[8:1]/8<5[8:1],27,18,,1>3[8:1]/8<6[8:1],27,18,,
{4}1x-6[8:1]/8x-5[8:1],8x-3[8:1]/1x-4[8:1],1b/8b,,
{8}3qq4[4:1],7,8,7,6pp5[4:1],2,1,2,
{8}4>6[4:1],5,6<4[4:1],,4-8[8:1],,{16}7x>7[2:6],6x,5x,,
{4},E8,B7,B6,E6,
{8},B5,B4,,B3,,
{4}1x,2x,3x,4x>1[8:1],
{8}4b<7[8:1],5,4b-8[8:1],3,{8}4b,6,{16}1,8,1,8,
{8}1b-5[8:1],8>6[4:1],1,8,,1,8w4[8:1],17,
{8}8,,1-5[8:1],2,8-4[8:1]/1,7,8/1<3[4:1],2,
{8}7h[4:1],,,2,1/8-6[8:1],7,1-3[8:1]/8-4[8:1],2,
{8}8-6[8:1]/1-5[8:1],,1/8-4[8:1],,1/8-6[8:1],1-5[8:1],8,1,
{8}8-4[8:1],1<3[4:1],8,1,,8,1w5[8:1],82,
{8}1,,8-4[8:1],7,1-5[8:1]/8,2,1/8>6[4:1],7,
{8}2h[4:1],,,7,8/1-3[8:1],2,8-6[8:1]/1-5[8:1],7,
{8}1-3[8:1]/8-4[8:1],,8/1-5[8:1],,8/1-3[8:1],8-4[8:1],1<3[2:1],8,
{4}1,8h[4:1],,1>4[8:1]/8h[8:1],
{8}1x/7h[8:1],,1-5[8:1]/6,6h[8:1],1x,7h[8:1],1-4[8:1],Ch[8:5],
{4}1x,1-6[8:1],1x,8<5[8:1]/1h[8:1],
{8}8x/2h[8:1],,8-4[8:1]/3,3h[8:1],8x,2h[8:1],8-5[8:1],Ch[8:5],
{4}8x,8-3[8:1],8x,1>4[8:1]/8h[8:1],
{8}1x-5[8:1]/7h[8:1],,1-4[8:1]/6,6h[8:1],1x-6[8:1],7h[8:1],1>4[8:1],8,
{8}1x-5[8:1]/7h[4:1],,1-4[8:1],6,1x-6[4:1]/6h[8:1],,6-3[4:1],,
{4}3-8[4:1],8-5[4:1],5-2[4:1],2<2[4:15],
{1}C,,,,
{4}1h[256:1]/B5,,2h[256:1]/B6,,
{4}3h[256:1]/B7,,4h[256:1]/B8,,
{4}5h[256:1]/B1,,6h[256:1]/B2,,
{4}7h[256:1]/B3,,8h[256:1]/C,,
{4}1h[256:1],,2h[256:1],,
{4}8-5[16:1]/3h[256:1],8!-5b[0##0.1209677419],
{8}1b-6[8:1],6<1[8:1],1>4[8:1],5,6q3[4:1],5,6/3p6[4:1],,
{8}Ch[4:1],,,3,5-1[8:1]/4,6,5/4<2[4:1],3,
{8}3h[4:1],,,2,3/1-5[8:1],8,7/1-6[8:1]*-7[8:1],8,
{8}1-4[8:1]*-3[8:1],,1-6[8:1],,3/1-4[8:1],2,71,8,
{8}8-3[8:1],3>8[8:1],8<5[8:1],4,3p6[4:1],4,3/6q3[4:1],,
{8}Ch[4:1],,,6,4-8[8:1]/5,3,4/5>7[4:1],6,
{8}6h[4:1],,,7,6/8-4[8:1],1,2/8-3[8:1],1,
{8}6/8-5[8:1],7,2/8>3[8:1],1,6/8<5[8:1],7,28,1,
{8}2bv7[8:1],7>2[8:1],2>5[8:1],6,6q3[4:1],7,6/3>5[4:1],,
{8}Ch[8:1],,4-8[8:1],3,6-1[8:1]/4,7,6/5<2[4:1],3,
{8}Ch[8:1],,3-5[8:1],2,3/1-3[8:1],8,7/1-6[8:1],6<8[8:1],
{8}3/1x-4[8:1],4x>2[8:1],1x-6[8:1],6x-8[8:1],1x-4[8:1],4x-2[8:1],1x,6,
{8}7v2[8:1],2<7[8:1],7<4[8:1],3,3p6[4:1],2,3/6<4[4:1],,
{8}Ch[8:1],,5-1[8:1],6,3-8[8:1]/5,2,3/4>7[4:1],6,
{8}Ch[8:1],,6-4[8:1],7,6/8-6[8:1],1,2/8-3[8:1]*>3[8:1],1,
{4}8b-5[8:1]*<5[8:1],8b-3[8:1]*V24[8:1],8b-5[8:1]*V64[8:1],8b>8[4:7],
{1}Ch[8:11]/8b,
{2},Ch[4:9],
{1}8x<8[4:6],
{1},
{4}2-5[8:1]/8,2/8-3[8:1],8/6-1[8:1],6/4-7[8:1],
{4}4/2-5[8:1],2/8-3[8:1],8/6-1[8:1],6/4-7[8:1],
{4}2b-7[8:1]/4,2/4-1[8:1],4/6-3[8:1],6/8-5[8:1],
{4}8/2-7[8:1],2/4-1[8:1],4/6-3[8:1],6/8-5[8:1],
{8}2b-5[8:1]/8,,8-3[8:1],7,6-1[8:1],5,4-7[8:1],3,
{8}2-7[8:1],3,4-1[8:1],5,6-3[8:1],7,8,1,
{16}2b,4,2,4,3,5,3,5,4,6,4,6,3,7,3,7,
{16}2,8,2,8,1-5[8:1],1,1,1,{4}1>4[8:1]*<6[8:1],1w5[8:1],
{1}1b,
{1},
{8}1/2>5[8:1],12,C,,7/8>3[8:1],78,C,,
{8}5/6<1[8:1],56,C,,3/4<7[8:1],34,C,,
{8}B1,B2,,,B8,B7,,,
{8}B3,B4,,,B6,B5,,,
{8}B8,B2,,,B1,B7,,,
{4}8w4[2:1],
&inote_6=(124)
{1},
{1},
{8}1/2,1/2,,,7/8,7/8,,,
{8}3/4,3/4,,,5/6,5/6,,,
{8}2/8,2/8,,,1/7,1/7,,,
{8}5/3,3/5,,,4/6,6/4,,,
{8}1/3,1/3,,,2/4,2/4,,,
{8}6/8,6/8,,,5/7,5/7,,,
{8}1/8,2/7,,,4/5,3/6,,,
{4}8/7,5/6,3/4,1/2,
{2}8/7-4[8:1],6/5-2[8:1],
{2}4/3-8[8:1],2/1-6[8:1],
{2}8/7-4[8:1],6/5-2[8:1],
{2}4/3-8[8:1],2/1-6[8:1],
{8}4/3<6[8:1],3/4,,,5/6>3[8:1],5/6,,,
{8}4/3<6[8:1],2/3,,,5/6>3[8:1],7/6,,,
{8}4/3<6[8:1],4/3,,,6/7<4[8:1],6/7,,,
{8}3/2>5[8:1],2/1,,,5/6>3[8:1],6/7,,,
{8}1/2-5[8:1],3/2,,,8/7-4[8:1],7/6,,,
{4}5/1-5[8:1],1/8-4[8:1],1/8,,
{8}8/7-4[8:1],6/7,,,1/2-5[8:1],2/3,,,
{4}4/8-4[8:1],8/1-5[8:1],1/8>3[8:1],,
{2}6h[4:1]/5h[4:1],3h[4:1]/4h[4:1],
{2}4h[4:1]/6h[4:1],3h[4:1]/5h[4:1],
{2}6h[4:1]/7h[4:1],2h[4:1]/3h[4:1],
{4}5/4,6/7,1>4[8:1]/8<5[8:1],,
{4}4/3,5/6,1/8<5[4:1],8/5>2[4:1],
{8},,,,5/6,5/4,4/3,5/4,
{4}6/5,,6/5,5/4,
{4}3/4,3/2>5[8:1],2/6>3[8:1],,
{4}6/5,3/4,8/1>4[4:1],1/4<7[4:1],
{8},,,,4/3,5/4,5/6,5/4,
{4}3/4,,3/4,4/5,
{4}6/5,7/6,8/7-4[4:1],7/8-3[4:1],
{4},,,35,
{4}1/2-5[8:1],28,8/7-4[8:1],7/1>4[8:1],
{4}8/1<6[8:1],2/1-5[8:1],,46,
{4}8/7-4[8:1],71,1/2-5[8:1],2/8<5[8:1],
{4}1/8>3[8:1],7/8-4[8:1],,1/2>5[8:1],
{4},7/8>3[8:1],,5/6<1[8:1],
{4},3/4<7[8:1],,1/8<5[8:1],
{4}1-5[8:1]/8,1/8-4[8:1],8/2-5[4:1],1-6[4:1]/2,
{1},
{4}4/2,4/3,6/5,5/4,
{4}5/7,5/6,4/3,4/5,
{4}4/2,4/3,6/5,4/5,
{2}3/4<7[8:1],1/2>5[8:1],
{2}7/8>3[8:1],5/6<1[8:1],
{2}4/3,8/7<4[8:1],
{2}2/1<6[8:1],4/3,
{1},
{4}5b/8-5[8:1],,6/5>2[4:1],5/2<7[4:1],
{4},,4/3<6[8:1],3/7,
{4}5/6>3[8:1],6/2,1/2-6[8:1],7/2,
{4}8/7-3[8:1],7/2,2/1-4[8:1],8/1-6[8:1],
{4}2/1-5[8:1],1/8,3/4<7[4:1],4/7>2[4:1],
{4},,1/2<7[8:1],2/6,
{4}8/7>2[8:1],3/7,5/6-2[8:1],6/3,
{4}4/3-7[8:1],3/6,7/8-5[8:1],1/8-3[8:1],
{4}7/8-4[8:1],8/1,5<8[8:1]/2>5[8:1],2/5-1[8:1],
{4},2>5[8:1]/8<5[8:1],,,
{4}4<7[8:1]/1>4[8:1],1-6[8:1]/4-1[8:1],,,
{4}8/4-8[8:1],,3/1-4[8:1],7/1-6[8:1],
{4}3/1-5[8:1],7/1,4>1[8:1]/7<4[8:1],7/4-8[8:1],
{4},1>4[8:1]/7<4[8:1],,,
{4}5>2[8:1]/8<5[8:1],8-3[8:1]/5-8[8:1],,,
{4}1/5-1[8:1],,6/8-5[8:1],2/8-3[8:1],
{4}6/8-4[8:1],2/8,8/7-4[8:1],,
{2}6/5-2[8:1],4/3-8[8:1],
{2}2/1-6[8:1],8/7-4[8:1],
{2}6/5-2[8:1],4/3-8[8:1],
{2}2/1-6[8:1],{4}8/7,7-2[8:1]/2,
{4},6-3[8:1]/3,,8-5[4:1]/5,
{4}8/5>2[4:1],,,7h[2:1]/5>2[4:1],
{4},,7-2[4:1]/2,2>5[4:1]/7,
{4},1,2,7-2[8:1]/2,
{4}2/7,7-2[4:1]/2,2>5[4:1]/7,
{4},,7h[4:1]/5>2[4:1],,5-8[4:1],
{4}8>3[4:1],3,4,2-6[8:1]/5,
{4}2<7[4:1]/6,2/7<4[4:1],
{4},,,,
{4},,,,
{8}1/2>5[8:1],12,,,7/8>3[8:1],78,,,
{8}5/6<1[8:1],56,,,3/4<7[8:1],34,,,
{8}3/5,3/5,,,4/6,4/6,,,
{8}8/2,2/8,,,1/7,7/1,,,
{8}4/3,4/3,,,6/5,6/5,,,
{8}2/1,2/1,,,8b/7b,,,,
&inote_7=(124)
{1},
{1},
{8}1/2,1/2,,,7/8,7/8,,,
{8}3/4,3/4,,,5/6,5/6,,,
{8}2/8,2/8,,,1/7,1/7,,,
{8}5/3,3/5,,,4/6,6/4,,,
{8}1/3,1/3,,,2/4,2/4,,,
{8}6/8,6/8,,,5/7,5/7,,,
{8}1/8,2/7,,,4/5,3/6,,,
{4}8/7,5/6,3/4,1/2,
{2}8/7-4[8:1],6/5-2[8:1],
{2}4/3-8[8:1],2/1-6[8:1],
{2}8/7-4[8:1],6/5-2[8:1],
{2}4/3-8[8:1],2/1-6[8:1],
{8}4/3<6[8:1],3/4,,,5/6>3[8:1],5/6,,,
{8}4/3<6[8:1],2/3,,,5/6>3[8:1],7/6,,,
{8}4/3<6[8:1],4/3,,,6/7<4[8:1],6/7,,,
{8}3/2>5[8:1],2/1,,,5/6>3[8:1],6/7,,,
{8}1/2-5[8:1],3/2,,,8/7-4[8:1],7/6,,,
{4}5/1-5[8:1],1/8-4[8:1],1/8,,
{8}8/7-4[8:1],6/7,,,1/2-5[8:1],2/3,,,
{4}4/8-4[8:1],8/1-5[8:1],1/8>3[8:1],,
{2}6h[4:1]/5h[4:1],3h[4:1]/4h[4:1],
{2}4h[4:1]/6h[4:1],3h[4:1]/5h[4:1],
{2}6h[4:1]/7h[4:1],2h[4:1]/3h[4:1],
{4}5/4,6/7,1>4[8:1]/8<5[8:1],,
{4}4/3,5/6,1/8<5[4:1],8/5>2[4:1],
{8},,,,5/6,5/4,4/3,5/4,
{4}6/5,,6/5,5/4,
{4}3/4,3/2>5[8:1],2/6>3[8:1],,
{4}6/5,3/4,8/1>4[4:1],1/4<7[4:1],
{8},,,,4/3,5/4,5/6,5/4,
{4}3/4,,3/4,4/5,
{4}6/5,7/6,8/7-4[4:1],7/8-3[4:1],
{4},,,35,
{4}1/2-5[8:1],28,8/7-4[8:1],7/1>4[8:1],
{4}8/1<6[8:1],2/1-5[8:1],,46,
{4}8/7-4[8:1],71,1/2-5[8:1],2/8<5[8:1],
{4}1/8>3[8:1],7/8-4[8:1],,1/2>5[8:1],
{4},7/8>3[8:1],,5/6<1[8:1],
{4},3/4<7[8:1],,1/8<5[8:1],
{4}1-5[8:1]/8,1/8-4[8:1],8/2-5[4:1],1-6[4:1]/2,
{1},
{4}4/2,4/3,6/5,5/4,
{4}5/7,5/6,4/3,4/5,
{4}4/2,4/3,6/5,4/5,
{2}3/4<7[8:1],1/2>5[8:1],
{2}7/8>3[8:1],5/6<1[8:1],
{2}4/3,8/7<4[8:1],
{2}2/1<6[8:1],4/3,
{1},
{4}5b/8-5[8:1],,6/5>2[4:1],5/2<7[4:1],
{4},,4/3<6[8:1],3/7,
{4}5/6>3[8:1],6/2,1/2-6[8:1],7/2,
{4}8/7-3[8:1],7/2,2/1-4[8:1],8/1-6[8:1],
{4}2/1-5[8:1],1/8,3/4<7[4:1],4/7>2[4:1],
{4},,1/2<7[8:1],2/6,
{4}8/7>2[8:1],3/7,5/6-2[8:1],6/3,
{4}4/3-7[8:1],3/6,7/8-5[8:1],1/8-3[8:1],
{4}7/8-4[8:1],8/1,5<8[8:1]/2>5[8:1],2/5-1[8:1],
{4},2>5[8:1]/8<5[8:1],,,
{4}4<7[8:1]/1>4[8:1],1-6[8:1]/4-1[8:1],,,
{4}8/4-8[8:1],,3/1-4[8:1],7/1-6[8:1],
{4}3/1-5[8:1],7/1,4>1[8:1]/7<4[8:1],7/4-8[8:1],
{4},1>4[8:1]/7<4[8:1],,,
{4}5>2[8:1]/8<5[8:1],8-3[8:1]/5-8[8:1],,,
{4}1/5-1[8:1],,6/8-5[8:1],2/8-3[8:1],
{4}6/8-4[8:1],2/8,8/7-4[8:1],,
{2}6/5-2[8:1],4/3-8[8:1],
{2}2/1-6[8:1],8/7-4[8:1],
{2}6/5-2[8:1],4/3-8[8:1],
{2}2/1-6[8:1],{4}8/7,7-2[8:1]/2,
{4},6-3[8:1]/3,,8-5[4:1]/5,
{4}8/5>2[4:1],,,7h[2:1]/5>2[4:1],
{4},,7-2[4:1]/2,2>5[4:1]/7,
{4},1,2,7-2[8:1]/2,
{4}2/7,7-2[4:1]/2,2>5[4:1]/7,
{4},,7h[4:1]/5>2[4:1],,5-8[4:1],
{4}8>3[4:1],3,4,2-6[8:1]/5,
{4}2<7[4:1]/6,2/7<4[4:1],
{4},,,,
{4},,,,
{8}1/2>5[8:1],12,,,7/8>3[8:1],78,,,
{8}5/6<1[8:1],56,,,3/4<7[8:1],34,,,
{8}3/5,3/5,,,4/6,4/6,,,
{8}8/2,2/8,,,1/7,7/1,,,
{8}4/3,4/3,,,6/5,6/5,,,
{8}2/1,2/1,,,8b/7b,,,,
