&title=VALLIS-NERIA
&artist=DJ YOSHITAKA
&first=0
&des=ZING
&lv_5=14.2
&des_5=ZING
&inote_5=
(185){4},{32},,,,,,,,,,,,,,,,8b<6z2qq8q4[4:13]/1b>3s7pp1p5b[4:13],2/7,3/6,5/4,{1},,,{4},,,{8}5,
{4}6h[2:1],
5,{8}5,4,3,3h[1:1],,4,
,5,,6q1[1:1],,,,,,,,,,,{4}2v3-5[8:5],
,,,{32},8,7,6,{8}5b<3[32:33],
,,,,,,,,,,{4}4,
5/3,5,
{1}4/6<4[8:7],
{8},,5,{24}6,5,6,,,,{8}4,{4}5/3,
3/5,4/6,6/4,5/3,
6/4,5/3,6/4,{8}5/4,6,
7/4,3,6/2,7,3/8,2,{32}8/1,7,{16}6,1,1-5[8:1],
{32},,8,7,{16}6,1,{8}8z4[8:1],8,{32}1,2,{16}3,,,{8}3,{16}5,4,
{8}6,7,8,4/1-6[8:1],2,7/1-4[8:1],,3/1-6[8:1],
,1/7-3[8:1],,5,{4}4>1[8:1],{8}5,5,
6,7v4[8:1],,7/8-5[8:1],,6/8-3[8:1],,2/8-5[8:1],
,7/8-3[8:1],,1/8,,2,4/3,{32}5/4h[8:1],6,7,8,
,,,,{8}8<5[8:1],4>1[8:1],8,4,4-1[8:1]*-7[8:1],,4,
,8,1/7,2,5,4/3-8[8:1],,5,
5<1[8:3],,,1<4b[2:1],2,3,4,3,
2,1,{4}1<6[8:1]*>4[8:1],1b,{8}5,{16}4,5,
{8}3,2,1-5[8:1],8,7,6-1[8:1],,2-5[8:1],
,8<5[8:1],,4,3,2,1,1w5[8:1],
,1qq4[8:5]*pp6[8:5],{1},{32}7h[16:3]/3h[16:3],
,,,,,,2/6,1/5,4/8,,,,,,,{8}5/1,5/1-6[8:1],
,1/5-8[8:1],,5/4-1[8:1],,4/7p4[2:1],,,,,,,{4}1b,
{8}1/5,1/5-8[8:1],
,5/2-6[8:1],,2/7-4[8:1],,7/1q4[2:1],,,,,,,6b,
5,5/4,{16}3,4,
{8}2,6/5,{16}7,5,{8}8,3/4,{16}3,4,{8}1h[8:1],8h[8:1],
7h[8:1],6h[8:1],5h[8:1],4h[8:1],3h[8:1],5,{16}4>1[8:1],5,4,5,
{8}4,{16}7-4[8:1],8,,8,{8}7,3h[8:1],5,5/4,{16}5/4,6/3,
{8}7/2,1-4-1[4:1],8-5b[8:1],1,{4}8,{8}6/2,6/2-5[8:1],
,2/8<5[8:1],,8/4>1[8:1],,4/8p5[2:1],,,,,,,{4}2b,
{8}3/7,3/7-3[8:1],
,7/4>1[8:1],,4/8<5[8:1],,8/2q5[2:1],,,,,,,6b,
5,5/4,{16}3,4,
{8}2,5/6,{16}7,5,{8}8,3/4,{16}2,4,{8}1h[8:1],8h[8:1],
7h[8:1],6h[8:1],5h[8:1],4h[8:1],3<6[8:1],6v1[8:1],{4}3,
{8},5,{16}6h[8:1]/8h[8:1],,,7h[8:1]/1h[8:1],,,{8}8/2,{16}2/8<5[8:1],,,3,
,,{8}2,1>4[8:1],{16}1,7,{4}1,{8}5,{16}6,5,
{8}6,6,{16}3,4,{8}3,3,{16}6,5,{8}6,6,
{16}4,5,{8}4,{16}6,4,5,3,6,4,5,3,{8}5,{16}6,5,
{8}6,6,{16}3,4,{8}3,3,{16}6,5,{8}6,6,
{16}4,5,{8}4,5,{16}3,6,{8}3,5,4,{16}3,4,
{8}3,2,{16}6,5,{8}6,7,{16}3,4,{8}3,2,
{16}5,4,{8}5,{16}3,5,4,6,3,5,4,6,{8}3,{16}3,4,
{8}2,6,{16}6,5,{8}7,3,{16}3,4,{8}2,6,
{16}6,5,{8}7,4,{16}4,5,{8}3,2,{16}7b,8,7,8,
{8}7,{16}2,1,2,1,{8}2,{16}6,5,6,5,{8}6,{16}3,4,
3,4,{8}3,{16}4,3,4,2,5,4,5,3,6b,5,6,5,
{8}6,{16}2,8,2,8,{8}2,{16}5,3,5,3,{8}5,{16}8,7,
8,7,{8}8,{16}5b,6b,5b,7b,4b,5b,4b,6b,3,4,2,4,
{8}1,{16}7,8,6,8,{8}5,{16}1,4,2,5,{8}3,{16}7,4,
6,3,{8}5,{16}3,5,3,7,2,6,1,5,{8}1/5,6/2,
7/3,8/4,7/3,6/2,1/5,6/2,{16}2b-5[16:1],,,7bv4[16:1],
,,{8}1b>4>1b[16:3],1,6,{16}7-3[8:1],7,,7,{4}8b/7bw3[4:13],
{1},,,{4},,,{8}5,
5,
5,5,5,5,5,5,{16}3,4,3,4,
3,4,3,4,3,4,3,4,3,4,{8}2q3[4:3],,,,,,,,,{4}4-6[8:1]*-8[8:1],
,1-4[8:1]/7-2[8:1],7b/1b,{8}3/8,{16}1,8,
{8}2,7,8,8v5[8:1],6,6/8bv3[8:1],,2/8bv5[8:1],
,8b/6<1[8:1],,4,{4}2,{8}8/2,8/2,
1/7,7/1v6[8:1],,7/1bv4[8:1],,3/1bv6[8:1],,7/1b<6[8:1],
,2/1b>4[8:1],,1b/8,,6,6/4,{16}3,5,
{8}2,1,8q4[8:1],6<1[8:1],8,6qq2[8:3],,6,
,,1b,8,7,1/6b,,6/1>4b[2:1],
1/6,,,4>8[2:1],5,6,7,6,
5,4,{4}4-1b[8:1]*-7b[8:1],4b,{8}2/8,{16}8,1,
{8}7,6,3/5,2-6[8:1],1,2/8b-4[8:1],,5b-2[8:1],
,6b-1[8:1],,3,4-1[8:1],4-7b[8:1],{32},,,,,,,,,,,,8q6<7p3[8:5]*p2<1q5b[8:5],
1/7,2/6,3/5,{4}4,,,,3-8[8:1]/4-7[8:1],
3/4,{8}1/6b,6/1bq5[8:1],
,1/6bq2[8:1],,6/4bp8[8:1],,4/7bp5[2:1],,,,,,,{4}2b,
{8}8/3b,3/8bp4[8:1],
,8/3bp7[8:1],,3/5bp1[8:1],,5/8bp6[2:1],,,,,,,8b,
7,6/4,{16}3,5,
{8}2,1/7,{16}7,8,{8}6,3/5,{16}3,4,{8}2h[8:1],1h[8:1],
8h[8:1],7h[8:1],6h[8:1],5h[8:1],4h[8:1],5,{16}5<8[8:1],4,5,4,
{8}5,{16}2-6[8:1],1,,1,{8}2,7,5,4,{16}4,3/5,
{8}2/6,1,8,{16}1/7,6/2,{4}5b/3b,{8}4/6b,6/4bp8[8:1],
,4/6bp2[8:1],,6/1bq5[8:1],,1/8bqq3[2:1],,,,,,,{4}4b,
{8}6/4b,4/6bq2[8:1],
,6/4bp8[8:1],,4/7bq3[8:1],,7/1bqq4[2:1],,,,,,,6b,
5,3/4,{16}3,4,
{8}2,1/8,{16}7,8,{8}6,3/5,{16}2,4,{8}1h[8:1],8h[8:1],
7h[8:1],6h[8:1],5h[8:1],4h[8:1],5-1[8:1],3,{4}5/3qq8[8:3],
{8},8,{16}7h[8:1],,,6,,,{8}6,1b/6b,{16}2,7,
{8}3,8,{32}8/4,,,,,8b,7b,6b,{4}1/5b<4[32:63],5,
4,5,5,6,
{8},7,,,{2}8,
E
