&title=Sleipnir
&artist=XeoN + 7SEQ
&first=0.03
&des=To Overcome
&lv_5=14
&inote_1=
&inote_5=(190)
{1},
{32}E1f,E8/E2,E3/E7,E6/E4,4x>5[4:13]/5x,,,,,,,,,,,,,,,,,,,,,,,,,,,,
{1},
{1},
{1},
{1}2pp6[2:3],
{1},
{1}7qq4[16:13],
{16},,,,A5,E5,E4,A3,A6,B6,B2,A2,A7,E8,E1,A1,
{8}4x-2^3s7[8:5],,5,5,,8,8,8,
{8}8xpp1V75[8:5],,5,5,,3,3,3,
{8}3x^8-6z2[8:5],,7,7,,5,5,5,
{8}5xpp4[16:9],,3,3^8b[16:3],,,,,
{4}1h[8:1]/5h[8:1],1h[8:1]/5h[8:1],2h[8:1]/4h[8:1],2h[8:1]/4h[8:1],
{4}3h[8:1]/5h[8:1],3h[8:1]/5h[8:1],4h[8:1]/6h[8:1],4h[8:1]/6h[8:1],
{16}5/7,,5/7,,8/4,,8/4,,2,1,2,1,3,8,3,8,
{4}3b-8^5-1[8:5],,5x-2[8:1],,
{8}3hb[4:1]/8,,4,4,3,5,2h[4:1]/6,,
||WE
WANT
{8}6-1[8:1],6,5,4,3^1[8:1],3^5[8:1],,,
{8}8hx[4:1],,6,6,4,5,2/6h[4:1],,
{8}1-5[8:1],1,5,6,7x-3[8:1],3,,,
{8}2hb[4:1]/5,,1,1,2,8,3h[4:1]/7,,
{8}7^4[8:1],7,8,1,2-4[8:1],2-8[8:1],,,
{8}5hx[4:1],,7-4-6[4:1],,4,3,2,1,
{16}A7,E7,E6,A5,A1,E2,E3,A3,A8,B8,B4,A4,1x-5[8:1],,,,
{16}5b,,,,4/6,,2,4,3,,5,4,6h[4:1],,3,,
{16}1^4[8:1],,1,,5,,6,,7,5,7,5,7-4[8:1],,,,
{16}7x/4x,,,,3/5,,6,4,5,,3,4,2h[4:1],,6,,
{16}8^5[8:1],,8,,4,,3,,2x,3,4,5,8-4[8:1],7,6,5,
{16}4bx,,,,3/5,,2,1,3,,8,1,7h[4:1],,2,,
{16}4^1[8:1],,4,,8,,7,,6,8,6,8,6-1[8:1],,,,
{16}4-8[8:1],,,,7h[4:1],,,,1,,1,,2/8,,2/8,,
{16}3,4,5,6,2,3,4,5,1,2,3,4,8x-4[8:1],,,,
{8}2bqq5[2:1],,,6,6,,7,7>3[4:1],
{8},3V16-4[8:3],,4,4,,3,3,
{8}3h[4:1],,5,5,3,4,2,2^5[4:1],
{8},5-1-3[16:5],,8,,6,6h[4:1],,
{8}4>7[4:1],,7>4[4:1],,6,6,5,5,
{8}5<2[4:1],,2<5[4:1],,3,3,4,4,
{8}4-2[8:1],,8-4[8:1],,1h[4:1],,5,5,
{16}4/6,,3,,1/5,,2,4,3,5,4,6,2b,,,,
{16}4^1[8:1],,,5,4,,7,,8,7,6,5,8,1,2,3,
{16}5^8[8:1],,,4,5,,2,,1,2,3,4,1,8,7,6,
{16}2-5[8:1],,,4,2,,8,,1,8,7,6,4,3,2,1,
{8}5x^8[16:3],7x^2[16:3],1x^4[16:3],3x^6[16:3],,1x,1x,,
{8}7b/5,7,7/4,7,7/3,7,7/2,7,
{8}1b/7,1,1/8,1,1/3,1,1/4,1,
{16}2b,5,2,5,2,5,2,5,1b,6,1,6,1,6,1,6,
{16}8b,7,8,7,1b,8,1,8,{24}1bx-5[8:1],2x,3x,4x,,,1bx,Cf,,,,,
{32}8x/4xqq8[8:5],D1,A1,D2,A2,D3,A3,D4,,,,,,,,,7x-4[8:1],,,,,,,,,,,,,,,,
{12}1,,1,4v7[8:1],,,1^4[8:1],,,,,,
{32}1x/5xpp1[8:5],D1,A8,D8,A7,D7,A6,D6,,,,,,,,,2x-5[8:1],,,,,,,,,,,,,,,,
{12}8V64-7[16:7],8,8,8x-3[16:3],,,,,,,,,
{32}8x/4xpp8[8:5],D8,A7,D7,A6,D6,A5,D5,,,,,,,,,1x^4[8:1],,,,,,,,,,,,,,,,
{12}7,,7,5v2[8:1],,,8^5[8:1],,,3x,,,
{12}3-5[12:1],,3x,6-8[12:1],,6x,4-2[12:1],,4x,7,,7,
{12}2,1,2,7,8,7,3,4,2,{24}8bx,B8f,,,,,
{24}2x,3x,4x,5xpp8[8:4],,,8x,7x,6x,5x,,,2x-5[8:1],,,,,,,,,,,,
{12}7,5,6,3,5,4,6pp6[64:17],4,5,2,,,
{24}1x,2x,3x,4xpp7[8:4],,,7x,6x,5x,4x,,,1x^4[8:1],,,,,,,,,,,,
{8}5/8,7,1/4,2-5-1[4:1],6x-8[8:1],,,,
{24}2x,3x-8[8:1],4x-8[24:2],5x,,,,,,,,,2x,3x-8[8:1],4x-8[24:2],5x,,,,,,,,,
{4}7xV53[4:1],3V17[4:1],7-4[32:5],,
{8}2/5,3,7/4,6,3-8[8:1]/5,,7,,
{8}1/7,8,2/1,3,4/5h[4:1],,2h[4:1],,
{12}B4h[12:6]/E5h[12:5]/E4h[24:15],,,,,,,,,,,,
{1}6hx[12:9]/5hx[12:6],
{8}6,5,7,4,{16}8,3,8,3,{24}1x,2x,1x,2x,1x,2x,
{4}1bxV74b[4:1]*V36b[4:1],,,A6/E6/E5/A4f,
{16}2b,1,3,8,2,,6,5,7,4,6,,1,8,1,8,
||WE
FALL
{16}3,4,2,5,1,6,8,7,1,2,3,4,1,8,7,6,
{16}4x,5,3,6,4,,7,8,6,1,7,,2,4,2,4,
{16}1-5b[8:1],,8,7,1,,6,,6-4b[8:1]/3-7b[8:1],,2/7,,,,,,
{16}1b,5,2,4,3,,7,5,6,4,8,,2,1,2,1,
{16}4,5,3,6,2,7,1,8,2,3,4,5,8,7,6,5,
{8}1x^4b[16:3],3x^6b[16:3],5x^8b[16:3],7x^2b[16:3],,,5,5,
{16}6/4,,6/4,,2,8,1,6,4-8b[8:1],7,3,5,4b,,,,
{16}7b,1,6,2,5,,3,4,2,6,1,,{24}7x,8x,7x,8x,7x,8x,
{16}6x,5,4,3,1,2,3,4,8,7,6,5,3,2,1,8,
{16}5x,2,6,4,7,,3,8,2,6,1,,5,1,7,3,
{16}6-1b[8:1],,5,4,6,,2,,3,1,2,7,8,6,4,5,
{16}1b^4b[8:1],,2,8,1,,7,,8,7,6,5,3,2,1,8,
{16}4b-7b[8:1],,5,3,4,,1,,8,1,2,3,5,6,7,8,
{16}1x,8,1,8,{24}2x,7,2,7,2,7,{16}3,6,3,6,{24}4x,5,4,5,4,5,
{16}3,6,2,7,{24}1x,8,1,8,1,8,{32}2bx,3,4,5,6,7,8,1,{32}2/6bx,5,4,3,2,1,8,7,
{1}6`Cf,
||WE
REALIZE
{1},
{4}3h[4:1],E4,5h[4:1],E5,
{4}2h[2:1],{16}E5,E6,E7,E8,E1,E2,E3,E4,E5,D6,E7,D8,
{8}3hx[4:1],,1,1,3,3,5,4h[4:1],
{8},6,5,7h[4:1],,2,4,3h[4:1],
{8},8bx-5b[4:1],,1bx-4[4:1],,,,{16}7x,,
{12}E4,E5,A5,E2,E3,A3,A7,E8,E1,A5,E6,E7,
{16}1,,1,,5,,2,4,3-5[8:1],,3,,7,,,,
{16}6,,6,,4,,7,8,6v1b[8:1],,6,,5,,,,
{16}3h[4:1],,1x,8,7,6,5,4,8,1,2,3,5,6,7,8,
{16}A3,E4,E5,A5,A2,B2,B6,A6,A1,E1,E8,A7,4b,,,,
{16}5/4h[4:1],,,,3,2,1,8,7,6,5,4,3,2,1,8,
{16}3/7h[4:1],,,,4,5,6,7,8,1,2,3,4,5,6,7,
{8}8x/4,8x/4x,1/5,1/5,2/6,2/6,3/7,3/7,
{32}A4,D4,A3,D3,A2,,,,D8,A7,D7,A6,D6,,,,1-5b[8:1],,,,,,,,B1,Cf,B5,,,,,,
{8}7b-3[8:1],3,7,1,2-5b[8:1],4,2,6,
{8}8-4[8:1],4,8,3,4-7b[8:1]/5-2b[8:1],3/6,,,
{8}1-5[8:1],5,1/6,8,7-2b[8:1],2,7/5,4,
{8}3-8[8:1],8,3/4,6,7-4b[8:1]/8x-4b[8:1],1/6,,,
{8}2bx-5[8:1],5xV31b[16:3],2,6,7x-4[8:1],8xv3b[8:1],7,8,
{8}6x-3[8:1],3xV57b[16:3],6,2,1xw5[8:1],1x,,,
{8}7bx-4[8:1],4xV68b[16:3],7,3,2x-5[8:1],1xv6b[8:1],2,1,
{16}3x-7[8:1],,7xV14b[4:1],,3,,5,,6,,6h[4:1],,2,3,4,5,
{1}6bxz2[2:7]`7xp3b[2:7],
{1},
{1},
{1},
{8}3,4,5,6,6,5,4,3,
||WE
ARE
{8}5,5,4,6,3,3,5,4,
{8}6,5,4,3,3,4,5,6,
{8}4,4,5,3,6,6,{16}3x,4x,5x,6xs2[8:3],
||We
are
Sleipnir,
bring
you
the
comfort,
the
encouragement
and
the
praise
&inote_6=
