&title=妄想哀歌 (feat. 初音ミク & 可不)
&artist=MIMI
&first=0.02
&des=rachel
&lv_5=13
&des_5=rachel
&inote_5=
(116){4},{8}2-7[8:1],2,5,{16}5,5,,6,{8}6,
{4}3,{16}3,3,{8}3,{4}3>1[8:1],{16}7,7,,,{4}8b,
{8}7-2[8:1],7,4,{16}4,4,,3,{8}3,
{4}6,{16}6,6,{8}6,6<8[8:1],{16}2,2,{4}2,
1b,{8}2-5[8:1],1,2/8,{16}8,8,2,2,{8}7h[8:1],
{16}3,3,{8}3,{16}1-5[8:1],2,{8}2,1/8-4[8:1],7,8/2-6[8:1],2,
2bx,{16},,,,7x,8x,{8}1x-6[8:1],8x,1x-4[8:1],2x,
1x,{16}6x,6,,,5x,4,{8}5x/3>8[8:1],6,{16}5,5,,6,
,7,{8}7,5x/4x,5xh[8:1],,4x>1[8:1],2x,4<7[8:1],
6x,4x,2x,2,2,2/7-4[8:1],6/2,7/2,
{16}2,2,{8}2,,4x/5x,{4}4xh[8:1],{8}5x<8[8:1],7x,
5>2[8:1],3x,5x,7x,7/2-5[8:1],3/7,2/7,7,
7,7,5xh[4:1],3,6h[4:1],1,5h[4:1],4,
6h[4:1],2,5,5/4,5/4,4/3,4/3,2/1,
2/1,8/1,{4}8b/1b,{8}E8/B8/B1/E2,4x,4bxqq4[8:1]*pp4[8:1],5x/3x,
{4}4,{8}1/7-4[8:1],8x,7/1-5[8:1],8x,1bx/7,2,
5x/2x,5/1,{4}5bx/1bx,{8}5bxpp5[8:1]*qq5[8:1],4x/6x,{4}5,
{8}8/2-6[8:1],3,{4}2/7,{8}5xh[4:1],3,6h[4:1],1,
4-1[16:1],4,{4}4b,{8}5bxpp5[8:1]*qq5[8:1],4x/6x,{4}5,
{8}7,{16}7h[8:1],4,{4}4,{16}3,3,6,6,4,4,5,5,
{8}3-7[16:1],3,{4}3bx,{8}4bxqq4[8:1]*pp4[8:1],5x/3x,{4}4,
{8}2xh[16:3],{16}5,5,,3,5x,3,6x,3,5x,3,6x,3,5x,3,
{8}6-2[16:1],6,6bx,{16}4,5,4,6,4,7,4,7,4,7,
4,7-3[8:1],3,7,3,7,,,{8}2-5[8:1],6-1[8:1],2,6,
3x-7[16:1],3x,{4}3bx,{16}5,4,5,3,5,2,5,2,
5,2-6[8:1],6,2,6,2,,,{8}7-4[8:1],3-8[8:1],7,3,
6x-2[16:1],6x,{4}6bx,8bx/1bx,{16}3,4,2,5h[16:1],
,,,,6,5,7,4h[16:1],,,,,1,8,2,7h[16:1],
,,,,4,5,3,6,2,5,{8}3,{16}5x,4x,6,3h[16:1],
,,,,3,4,2,5h[16:1],,,,,6,5,7,4h[16:1],
,,,,3,4,2,5,{4}2,{16}3>8[8:1],4,5,6,
,,,,6<1[8:1],5,4,3,,,,,3>8[8:1],4,5,6,
,,,,2>5[8:1],1,8,7,,,,,7<4[8:1],8,1,2,
,,,,6,5,7,4,,,5,3,6,2,5,3,
{8}6x/4x,6x/4x,{4}6bx/4bx,{16}7,7,3,3,6,6,2,2,
7,7,3,3,,,{8}5-2[8:1],4,5-8[8:1],6,5-1[8:1],
5,5bx,{16},,,,2,2,6,6,3,3,7,7,
2,2,6,6,,,{8}4-7[8:1],3,4-1[8:1],5,4-8[8:1],
4,4bx,,,1-5[8:1],1,1/7-3[8:1],7,
7/2-6[8:1],2,{4}2bx,{8}1>4[8:1],1,1<6[8:1],1,
1-5[8:1],1,{4}1bx,{8}8x/2x-6[8:1],1,2/8-4[8:1],1,
8/3,3,B6/B2,3,3v8[8:1],5,3/7<4[8:1],6,
7/1-5[8:1],2,{4}1/7,{8}2xh[4:1],4,6h[4:1],4,
2h[4:1],4,6h[4:1],4,2h[4:1],5,6,7,
8bxw4[16:1],8bx,{4}8bx,{8}5bxpp5[8:1]*qq4[8:1],4x/6x,{4}5,
{8}6h[4:1],{16}3,3,,,{8}7/3,B7/B3f,6x/2x,B6/B2,7/3,
B7/B3f,6x/2x,{4}B6/B2,{8}4bxqq4[8:1]*pp5[8:1],5x/3x,{4}4,
{8}3h[4:1],{16}6,6,,,{8}2/6,B2/B6f,3x/7x,B3/B7,2/6,
B2/B6f,3x/7x,{4}B3/B7,{8}6/4,6/3,{4}6h[8:3]/B2f/B3f/E3f,
{8}2,{16}1,1,,,{8}2,2-4[16:1],7,7-5[16:1],2,
2-6[8:1],2,{4}2bx,{8}3/5,3/6,{4}3h[8:3]/B7f/B6f/E7f,
{8}7,{16}8,8,,,{8}7,7-5[16:1],2,{4}2-4[16:1],
{8}5,5w1[16:1],5,5bx,{16}7x,3x,7x,4x,7x,3x,7x,4x,
7x,3x,7x,4x,{8}7xh[1:1],5,2,4,1,4,
4-8[8:1],4,{4}4bx,{16}2x,6x,2x,5x,2x,6x,2x,5x,
2x,6x,2x,5x,{8}2xh[1:1],4,7,5,8,5,
5-1[8:1],5,{4}5bx,{2}6h[4:1]/4h[4:1],
5h[4:1]/3h[4:1],4h[4:1]/6h[4:1],
{8}4/6,7/3,{4}8/2,{2}8h[4:1]/2h[4:1],
1h[4:1]/7h[4:1],8h[4:1]/2h[4:1],
{8}8,2,7,3,6,6,6<1[4:1],6,
4,4,{4}4h[4:1],{8}6,6,7,8,
1,7,2,6,3,3,3>8[4:1],3,
5,5,{4}5h[4:1],{16}1,1,7,7,4,4,,,{8}6h[8:3],
4,2,4,{4}4x/6x,5/3,
6/4,5/3,{8}6/4,6/4,5/3,5/3,
5/4,6/3,{4}8bx/1bx,{8}4bxw8[16:1],5/3,{4}4bx,
{8}7h[16:3],{16}1,1,,,{8}8/1-5[8:1],2,1/8-4[8:1],7,2/8,
2-6[8:1],3bx,{4}2bx,{8}5bxw1[16:1],4/6,{4}5bx,
{8}2h[16:3],{16}8,8,,,{8}1/8-4[8:1],7,8/1-5[8:1],2,7/1,
7-3[8:1],6bx,{4}7bx,{8}8bxh[4:1]/2bx-6[8:1],2bx,{4}2bx,
{8}3,{16}5,5,,,6,5,6,5,6,5,7,4,8,3,
{8}1-5[8:1],1,{4}1bx,{8}1bxh[4:1]/7bx-3[8:1],7bx,{4}7bx,
{8}6,{16}4,4,,,3,4,3,4,3,4,2,5,1,6,
{8}8-4[8:1],8,{4}8bx,{16}6,4,6,3,6,4,6,3,
6,2,6,2,{8}6h[1:1],4,4,3,3,2,
2-5[8:1],2,{4}2bx,{16}3,5,3,6,3,5,3,6,
3,7,3,7,{8}3h[8:1],7<5[8:1],8,7/2>4[8:1],1,2/7,
7,7/2-5[16:1],8,7/2,{16}3x,5x,3x,6x,3,5,3,6,
3,7,3,7,{4}3h[8:1],{8}6-1[8:1],2-5[8:1],6,2,
8w4[16:1],8,{4}8bx,{16}6x,4x,6x,3x,6,4,6,3,
6,2,6,2,{4}6h[8:1],{8}3-8[8:1],7-4[8:1],3,7,
1w5[16:1],1,{4}1bx,{2}7bx>7-1-3-5-7[4:7],
E
