&title=あなぐらぐらし
&artist=ヰ世界情緒
&first=0.07999999
&des_5=kano
&lv_5=14
&des=kano
&inote_5=(193){4},{1},{4},,,{16},,,6bxh[16:33],
,,,,,,,,,,,5h[2:1],
{8},,,,,,,4,
{16},4,{8},{4}4,{8},5/3,{4},{16}4/3,
{8},{16}5h[16:3]/1h[16:3],,,,,,7/5,{8},{4}6/4,
{8},5/4,{16},4/3,{8},{16}7/6,{8},{16}3/1,{8},{16}5,4,
6,5,{8},{16}7/3,{8},{16}1-3-5-2[2:1],{8},1,{16},8,{8},{16}7,
{8},{16}6,{8},6,{16},7/1,{8},{16}7/1,{8},{16}5/3h[16:9],
{8},E6,{16},E7,{8},{16}E8,{8},{16}6h[16:9],{8},E2,
{16},E3,{8},{16}E4,{8},{16}5,{8},6/4,{16},7/3,{8},{16}1/8,
{8},{16}7h[16:9]/3>5[2:1],,,,,,,,,,,,8x,
{8},7/4,{16},6,{8}5,{16}4/7,{8},{16}1/2,{8},4/3,
{16},3,{8}4,{16}5/2,{8},{16}8-6[8:1],{8},8-4[8:1],{16},8-5[8:1],{8},{16}8x,
{8},{16}1b,,,,,,3h[16:15],{8},,,{16}5h[2:1],
{8},,,,,{16}E2/6-3[16:7],{8},B1,
{16},B8,{8},{4}E8,{16}1h[16:9],{8},{16}3,{8},4,
{16},5,{8},{16}6h[16:3],{8},{16}5,{8},6h[16:3],{16},7,{8},{16}8/5,
{8},{16}4/3,{8},5/2,{16},6/3,{8},{16}4h[16:3],{8},{16}5,
{8},6/3,{16},7/5,{8},{16}2,{8},{16}2/5<8[4:1],{8},2,
{16},2,{8},{16}1,{8},{16}7/1>4[4:1],{8},6,{16},6,{8},{2}5bh[2:1],
{4}4,3h[16:9],
{2},{16}4,{8},{16}5,{8},6,
{16},7,{8},{32}8/1,{16},,,{32}1/2,{16},,,3/2,{32},,,,,4/3,{16},,,{32}E8,
A7,B7,E7,B6,E6,B5,E5,{1},,,{4},,{8},5h[4:1],
{4},{8}5h[4:1],,,,5,
,5,,5h[4:1],{2},{8}4h[4:1],
{4},{8}4h[4:1],,,,4,
,4,,4h[4:1],,6,{4},7,
{8}7,5h[4:1],{4}7,{8}7,4h[4:1],
{4}7,{8}7,5h[4:1],,6,,7/4,
{16}3,8,3,8,2,7,2,7,2,6,2,6,3,5,3,5,
4,6,4,6,5,6,{8}5-2[8:1],,8,7,6,
{4}5/1h[8:1],{8}1h[8:1],6,{4}1h[8:1],{8}1h[8:1],8,
{4}1h[8:1],{8}1h[8:1],5,,4/3,{4},4/8h[8:1],
{8}8h[8:1],3,{4}8h[8:1],{8}8h[8:1],1,
{4}8h[8:1],{8}8h[8:1],3,,5/6,,7,
1h[8:1],7,1h[8:1],6,2h[8:1],5,2h[8:1],4,
1h[8:1],5,1h[8:1],7h[4:1],,4,,5/6,
8h[8:1],2,8h[8:1],3,7h[8:1],4,7h[8:1],5,
8h[8:1],4,8h[8:1],2h[4:1],,5b,{4},8-6[8:1],
{8}8,2-4[8:1],,2,7,8-4[8:1],
,8/2,3,1,,7h[8:1],,6/2,
{4}1-3[8:1],{8}1,7-5[8:1],,7,2,1-5[8:1],
,1/7-4[8:1],{4}6,{8},1h[4:1],{4},{8}3<6[8:1],
2,1,8>3[8:1],,5-1[8:1],,4-7[8:1],
,8-3[8:1],,1-5-2[4:1],,5h[4:1],{4},{8}6>3[8:1],
7,8,1<6[8:1],,1/4-8[8:1],,5-2[8:1],
,1-6[8:1],,8<2[4:1],,5h[4:1],{4},{1}Cf,
,,{32}E7,
B6,B5,E5,E3,B2,B1,E1,{4},7b,5h[4:1],
6,{8}4,5,{4}6/2,7/3,
2h[4:1],{8}8,8,{4}7/4,6/5,
{8}3,3,5,5,2,2,4,4,
1,1,1-3[8:1],1-7[8:1],{4}1-5b[8:1],A1f,
{8}6,6h[4:1],,5,6/4,6/4,7/3,7/3,
2,2h[4:1],,1,3/8,8/3,6/5,6/5,
4,3-1[8:1],4,3,8,8,7/1,6/2,
{16}5,4,{8}5,{16}3,4,{8}2,8,8,{4}7b/1b,
2-8-4-2[8:5],{8}5,5,{4}B7,B6,
{8},8,8h[4:1],2,2h[4:1],7,6,3/5,
,6/5,7/3,7/3,1h[4:1],8b,7b,6b,
4/5,3,6/4,7,5/2,1,{4}8-4[8:1],
8-6[8:1],8-4[8:1],{8}3/8-6[8:1],3,{4}3/8-2[8:1],
{8}8,3,3,5,6/4,2,3/8,7/4,
6,6h[4:1],{16}5x,4x,{8}3x,{4}8/2x,{8}6/4,6/4,
2-6[8:1],B5/B4,2,8x,7-3[8:1],B1/B2,{4}7,
{2}Ch[2:1],E7f/B7/B6,
8h[2:1],E3f/B2/B3,
{8}1,2,3/4,5/2,{4}1/6,{8}8,8,
1-3[8:1],8-5[8:1],1,8,{2}4w8[8:1],
{8}6/2,6/2,5/3,5/3,{4}4h[4:1],{8}5,6,
{16}8h[16:1]/7h[16:1],{8},{16}3h[16:1]/2h[16:1],{8},6h[16:1]/4h[16:1],{16},7h[16:1]/1h[16:1],{8},{16}4h[16:1]/3h[16:1],{8},{16}6/5,
,Cfh[16:23],{8},,,{2}B6h[1:1],
{1}B5h[2:1],
{4}7b/3b,{8}6-8[8:1],6/4,,1,2-8-6<2[2:1],2,
{4}6,{8}5,5,4-7[8:1],4-1[8:1],{4},{8}8-6[8:1],
8,4-2[8:1],4,7-3[8:1],7,1>4[8:1],1,
5<8[8:1],5,1,2,{4}3/1,5/7,
2b/6b,{8}3-1[8:1],3/5,,8,7-1-3>7[2:1],7,
{4}3,{8}4,4,5-2[8:1],5-8[8:1],{4},{8}1-3[8:1],
1,5-7[8:1],5,2-6[8:1],2,8<5[8:1],8,
4>1[8:1],4,8,7,{4}6/8,3/2,
6xh[8:1],{8}5,5,{4}7xh[8:1],{8}5,5,
{4}8xh[8:1],{8}5,4,3/7,2,6/4,7-4[8:1],
,7,8,1,2-5[8:1],1,8,7,
6,5,7/4,6/3,{4}5/2h[4:1],8b,
2h[8:1],{16}4,2,{8}4,{4}3h[8:1],{16}5,3,{8}5,
{4}1h[8:1],{16}3,1,{8}3,5/2,6/3,7/4,8/5,
E8,C,{4}E4,{8}E8,C,{4}E4,
{8}B2,C,{4}B6,{8}B2,C,B6,Cfh[8:13],
{1},,{4}8b/1b,
{8}5/6<1[8:1],7/4,,2,2,4/3>8[8:1],
{4}2/5,{8}7,7,6/5,5/4,4/3,1b,
,7h[4:1],,5,5/8-2[8:1],5,5,5,
4/7-2[8:1],4,4,4,{2}4/8-5[8:1]*-3[8:1],
{4}6b/2b,{8}4/3>8[8:1],5/2,,7,7,5/6<1[8:1],
{4}7/4,{8}2,2,3/4,4/5,5/6,8b,
,2h[4:1],,4w8[8:1],,4,,6/2,
3/7,8/4,7/3,6/2,{4}5/1w5[8:1],A1f,
7<4[8:1],{8}8,1,{4}2>5[8:1],{8}1,8,
{4}7-4[8:1],{8}7,1,2-5[8:1],8-4[8:1],2,8,
,2h[4:1],,8,7/1,7/1,6/2,6/2,
3h[8:1],5h[8:1],1h[8:1],8,{4}7/2,6/4,
2>5[8:1],{8}2/1,8,{4}7<4[8:1],{8}7/8,1,
{4}2-5[8:1],{8}2/1,8,7-5[8:1],7-3[8:1],{4},{8}8,
8,{32}1b/B6,B5,{16}E5,{8},8,8,{32}1b/B6,B5,{16}E5,{8},2,
2,{32}8b/B3,B4,{16}E5,{8},1,1,{32}8b/B3,B4,{16}E5,{8},,,,,,,,,,,,,,,,,{4}B6,
{8}B5,C,,E5,,E4,
,C,,E3,,E2,,E8,
B7,B6,E6,E2,B2,B3,E4,2h[4:1],
,,,{64}A8/E8,D8,A7,B7,D7,E7,B6,A6,D6,E6,B5,A5,D5,E5,{32}A4,{8}Ch[8:3],{4},{8}5,
5,{32}6x/E2,B1,{16}B8,{8},6,6,{32}7x/E2,B1,{16}B8,{8},6,
5,7,5,8,4,{4}7b/3b,
{8}4,4,{32}3/E8,B8,{16}B1,{8},3,3,{32}2/E8,B8,{16}B1,{8},4,
5,2,2,6,7,{4}8/1,
{8}2V84[4:1],7,6,6,5V37[4:1],5,{4}1,
{8}2,2,3,4,{4}5/2,7/8,
{8}2-5[8:1],6,2-8[4:1],7,8-4[4:1],7,6,5,
6,6,7/5,7/5,{4}6/4,5/3,
{8}2,2,3,3,{32}4/5,E6,B6,B7,{8}E8,{4}1,
{8}8,8,7,7,{32}6/5,E5,B4,B3,{8}E3,{4}1,
{8}8,7,6,5,{4}4/3,{8}2,5,
4/6,3,4/2,5,{4}6/1h[4:1],{24}8,E8,B7,B6,{12},{8}3,
6x,3,7,8/1,1,{4}2/4,
{8}2-5[8:1],5,2,8,7-4[8:1],4,7,8,
{6}1s5[4:7],2,3,4,5,6,
7,8,1,8,7,6,
{1}2bh[2:7],
{2},,,,,{8}3,
3,4,4,
{24}5b-2b[8:1],6,{12}7,,{8}5b,8bv5b[8:1],,8bv3b[8:1],,8b-6b[8:1]*-5b[8:1],
,8,,2b,2b,4,{16}3bx/4b-7b[8:1],2bx,{8}1bx,
4b,1b,2bv5b[8:1],7,2b-8b[8:1]*-7b[8:1],6,{4},{8}5,
5,{12}6,3bx,2bx,1bx,8bx,7bx,6bxV48b[4:1],,,,,,{8}7bx,
{16}7bx,6bx,5bx/3bx,{8},{16}2b/4,{8},2b/8,
{16},6h[8:1],,5b,{8},4b/7,{16}2bh[16:3],{8},{16}1,{8},3b/8,
{16},6bh[16:7],{8},,,{16}5b,{8},{16}6,{8},4b/7,
{16}1b,8,{8}1b,,6/4bqq7b[8:3],6,{4},{8}8b,
,{16}8bx,8bx,{24}E8,B7,B6,E6,{12},{4}1b>4b[8:1],{8}1b,8b<5b[8:1],
{16},8b,{8},4b,4b,{16}6b/2b,{8},{16}5b/4b,{8},3b/2b,
{16},7b/6b,{4},{16}3bx,4bx,3bx,4bx,{8},5b/3b,6b/4b,
7b/5b,2b/1b,{16},6b/3b,{8},{4}3b/5bh[4:1],{16}6b,{8},{16}7bh[4:1],
,,,E8,B8,B1,E2,E6,B5,B4,{8}E4,{4}1>8b[2:1],
{8},{16}B7,C,{4}B3,{8}B8/B1/E1f,{4},{8}2h[8:9]/7h[8:9],
{2},,,{8}1/2,
{16}5,6,{8}7/4,{16}1,8,
{24}2b,3,4,5,{12},{8}8,8-4-8[4:1],,2-5-7-4[8:3],,2,
,8,{24}8,D8,A7,D7,{12}A6,{4}2h[4:1],{24}4b,5,6,7,{12},{4}2,
{8}2,1-5-1[4:1],,7-4-2-5[8:3],,7,
,1,{24}1,D2,A2,D3,{12}A3,{4}7h[4:1],{24}5b,4,3,2,{12},{8}6,
{16}5,5,{8}7-4[8:1],{16}1,1,{8}7>2[8:1],2,,{24}A2,D3,A3,
D4,A4,D5,A5,D6,A6,1,2,3,4,5,6,{2}7/1-5[8:1],
{8}7h[4:1],{16}1,1,{8}2-4[8:1],{16}5,5,{8}2-6[8:1],{16}6,7,{4}8-4[8:1],
8>3[8:1]*<5[8:1],8w4b[8:1],,{8}6b/2b,2b/6b,
{16}1h[16:3],{8},{16}2,{8},3h[16:3],{16},4,{8},5/2,{16}4,6,
3/7h[16:3],{8},{16}1h[16:3],{8},3,{16}5h[8:1],{8},{16}6h[8:1],{8},7/4,
{16}2h[8:1]/1h[8:1],{8},{16}3h[8:1]/7h[8:1],{8},5/4,{16}7h[8:1]/6h[8:1],{8},{16}4h[8:1]/3h[8:1],{8},7/1,
{16}3h[8:1]/4h[8:1],{8},{16}5/2,{8},6/4,{16}5/3,{8},{16}3/4,,5h[16:3]/1h[16:3],,,,2/6,
7/3,4/8q1>6b[16:25],{4},{2}Cf,
{1},1h[16:19],
{16},,,7bh[8:7],,,,,,,,,,,,,,C,
{3},{24}6,5,6h[12:5],{8},,,{24}5,
4,3h[12:5],{3},{24}8,7,{6}6h[6:1],3b,{24},{8}3b,
,,,{24}B7,B6,B5,{2}E5,
{1}1bh[4:3],
{4}7/4-2[8:1],{8}5,5,7-5[8:1],8,1-5[8:1],2,
{4}8/1-4[8:1],1V37[4:1],1/7-4[8:1],8h[4:1],
,{8}6/2-8[8:1],5,2,3,4,5,
6/4,6/4,3/5,3/5,2/4,2/4,5/1,5/1,
2/6,3-5[8:1],8,3,7,6-2[8:1],5,6,
1,1,2/8,7/3,{2}6h[4:1]/4h[4:1],
{8}7/3,8-4[8:1],2,8,1,2-6[8:1],8,2,
7,7,8/1,8/1,{2}7h[4:1]/2h[4:1],
{8}4/3,4/3,{16}3-6[8:1],4,{8}1,7,8-5[8:1],8,2<7[8:1],
,6,5,4,1h[4:1],8,7,6h[4:1],
,4,4,5,{16}3,3,{8}8,{16}4,4,{8}7,
{16}5,6,5,6,4,5,4,5,3,2,1,8,4,5,6,7,
{4}8b/4-1[8:1],7,{8}4>1[8:1],6,6,5,
5-8[8:1],4,3,2,5<8[8:1],1,2,3,
4h[2:1],E8,E4,B6,{2}Ch[2:3],
{8},2,,3,{4}3,5,
{8}4h[4:1],{4},{16}3x,7x/4x,{4}5x/6h[4:1],1,
{8}3/5,{16}3,2,{8}1/6,{16}6,7,{4}8/4h[4:1],6b,
{8}3/1,{16}3,4,{8}5/8,{16}8,7,{8}6/2,2,4,4,
5/3,5/3,6/2,7/1,{4}8h[4:1],{24}E2,B2,B3,E4,{12},{8}6,
6,4,4,{16}8,7,6,5,{8}4/3,3,
{16}2/5,{8},{16}8/1,{8},7/4,{16}5/4,{8},{16}2/1,{8},8/7,
{6}4-8b[2:5],3,7,2,6,2,
1,1,6,5,7,3,
4,4,2,1,7,4,
3h[8:3],5,6,7h[8:3],1,2,
1,1,1,8,8,8,
2h[16:1],2h[16:1],2h[16:1],7h[16:1],7h[16:1],7h[16:1],
{1}B7/B6/E7/Ch[4:11],
,,{32}8x,
7x,6x,5x,4x,3x,2x,1x,8x,7x,6x,5x,4x,3x,2x,1x,8x,7x,6x,5x,4x,3x,2x,1x,8x,7x,6x,5x,4x,3x,2x,1x,
{4}8x/Cf,{8}3,3-6[8:1],,8<5[8:1],,8,
{4}1-3[8:1],{8}1/4,5-7[8:1],,5/4,3,2,
{4}7/1-5[8:1],{8}1,8-3[8:1],,8/4w8[8:1],,4,
,6/2,5/1,7/3h[8:3],{4},{8}4,5,
6/2,1,1,6/8,7,7,5/3,4,
4,6,5,7/3,2,3/1,8/4,{16}6,5,
{8}6,{16}4,5,{8}3,{16}6,6,{8}4,{16}8,7,6,5,1,2,
3,4,6,7,8,1,5<2[8:3],4,3,2,{8}1,{4},3h[4:1],
{8}4,4,{16}3,4,{8}1,{4}6h[4:1],
{8}5,5,{16}6,4,5,4,5,3,4,3,4,2,5,2,
5,3,6,3,6,4,7,4,7,3,8,4,5,2,1,3,
8,4,6,5,{8}7,{24}1x,2x,3x,7x,6x,5x,2x,3x,4x,8x,7x,{6}6x,
{4}1xh[4:1],{8}B6/E6,E5/B4,{4}8xh[4:1],{8}B3/E4,E5/B5,
{4}4xh[4:1],{8}B7/E8,E1/B1,4,4,4,4,
3,5,3,5,1,8,1,8,
2,2/6,3,3/7,4,4,{24}5/6,7,8,1,{12},{4}4b,
{8}6/5,5-3[8:1],,5,8-4-8[4:1],8,
{24}B2,C,{12}B6,,{8}1,2,3/8,7,4/6,3/7,
2-4[8:1],1-5[8:1],2,1,8-4[8:1],7-5[8:1],8,7,
3,2,1/5,6,{4}3/7h[4:1],{24}E4,E5,{6}E6,
{4}8/1,{8}3/4,3/4-8[8:1],,1,2-6[8:1],3,
{4}2/4-8[8:1],{8}4,5,6-2[8:1],7,8,8,
7,7,5,5,4/3,4/3,3/2,3/2,
2/1,2/1,8/1,8/1,{4}7b/2b,3h[4:1],
{8}5,5,{16}3,4,{8}3,6,6,{16}2,3,{8}2,
7,7,{16}1,2,{8}1,8,8,{24}1,2,3,7,6,5,
{8},2h[8:1],3h[8:1],5h[8:1],6,6,4,7,
2h[16:1],4h[16:1],3h[16:1],8,{2}8-5[8:1]*-3[8:1],
{8}6b/2b,6/2,{16}4,5,{8}4,7/3,7/3,{16}5,4,{8}5,
8/1,8/1,{16}2,6,2,6,{8}2h[4:1],B8,C,B4,
1-5[8:1],8,1/7,7,8-4[8:1],1,8/2,2,
1>4[8:1],5,1/6,7,8<5[8:1],4,3/8,2,
{4}1h[4:1],{8}3,5,6h[4:1],8,2,3,
{4}5/4h[4:1],{8}6,7/3,2/1,2/1,8/7,8/7,
C,{16}E7,E6,{8}E5,{16}E2,E3,{8}E4,{24}8,7,6,{8}5,{24}2,3,4,
{8}5/8,8,8/2,2,{4}2/5,{24}3,4,5,6,7,8,
{4}1s5[4:1],{8}6,6,,8,8,7/1,
{4}3/5<8[8:1],{8}1,2,3-1[8:1],2,3/4-8[8:1],4,
,2b,,2b/5b,,7b/4b,,6b/5b,
8b/1b,3b/4b,5b/4b,6b/5b,{4}7b/3b,1b,
{8}8/4,{24}8,7,6,{8}4,4,7/3,{24}7,6,5,{8}3,3,
6/2,{24}6,5,4,{8}1,1,2>5[8:1],2,{16}E7,E8,{8}E1,
,1b,1b,{16}3b,4b,{8}5b/2b,{16}8b,7b,{8}6b/1b,4b/3b,
5bh[8:1],B8/B1/E1f,3bh[8:1],E7/E6/B6f,{4}Ch[4:1],8,
{24}2/7,3,4,7,{12},{16}8,5,{8}8,{24}7/2,6,5,2,{12},{16}1,4,{8}1,
{24}5x,6x,7x,8x,5x,6x,7x,8x,5x,4x,3x,2x,5x,4x,3x,2x,8,7,6,5,8,7,6,5,
{8}E2/B2,B3/E4,C,B7/E7/B6,E3/B3,B4/E5,C,B8/E8/B7,
E4/B4,B5/E6,C,B1/E1/B8,E6/B6,B7/E8,C,B3/E3/B2,
8,7,6/4,5,1,1,3,3,
{16}4,5,4,5,{8}3,6,{16}2,7,2,7,{8}1,5,
3-1[8:1],4,3,5,6,7/4,1,1,
{16}2,4,3,5,{8}1,7,{16}6,4,5,3,{8},8,
2/5,6,7/1,8,4,4,2,2,
{16}1,8,1,8,{8}2,7,{16}3,6,3,6,{8}4,8,
2-4[8:1],1,2,8,7,6/1,4,4,
{16}3,1,2,8,{8}4,6,{16}7,1,8,2,{8},5,
3/4,1,6/4,1,{16}8,7,6,5,{8}1,1,
{16}2,3,4,5,{8}7,7,{16}8/4,7/3,6/2,5/1,{4}4/8h[4:1],
{8}5,4,3/6,1,2,3/8,6,5,
7/4,2/1,8/1,8/1,7/3,6/5,{4}4/2,
{8}6/5,8,3/5,8,{16}1,2,3,4,{8}8,8,
{16}7,6,5,4,{8}2,2,{16}1/5,2/6,3/7,4/8,{4}5/1h[4:1],
{8}4,5,6/3,8,7,6/1,3,4,
2/5,7/8,1/8,1/8,2/6,3/4,{4}5/7,
{8}1h[8:1],8,B2/B3,6,6,1,5,5,
1,4,5,6/2,1,8/7,6,5,
5/3,2,2,5/4,6,6,6,7/8,
1,1,2/4,5,{4}6/4h[2:1],7,
{8}5,4,6,5,4,7,3,3,
8,1,2,1,8,7,6,5/4,
3,B7/E7,B1/B2,5h[8:1],B4/E4,B8/E1,,7-3[8:1]/2-6[8:1],
,7/2,,5V37[4:1]/4V62[4:1],{2},{8}1,
8,2,5h[8:5],,4,,E1,
,E2/C,,E3,,4/5,,7,
8,1,7,4h[8:5],,5,,E1,
,E8/C,,E7,,5/4,{4},{8}4/2,
3,2,{24}E8/1-4[8:1],B7,B6,{8}E6,5xh[8:1],,5x,
,1,2,6/3h[4:1],,8,,7/1,
{24}6/2,B7,B8,B1,{12}B2,Ch[16:5],
E
