&title=マリオネットダンサー
&artist=ひらぎ
&first=0.02
&des=IMRIS
&lv_5=13+
&inote_5=(112)
{1},
{4}3/6-1-5[8:4],4,4,3,
{4}4/2V83[8:4],5,5,6,
{4}8v7[8:1],2v3[8:1],6v5[8:1],3v4[8:1],
{4}5,4q5[8:2],,8x,
{24}37,,,5h[8:1],,,2,,4,3,,6,,,6,5,,,4/3,,2,,,8x,
{24}3x,,,6h[8:1],,,8,,5,1,,,7v6[8:1]/3v2[8:1],,,26,,,,,,,,,
{24}1h[12:1],,4,2xh[12:1],,,7h[12:1],,5,6xh[12:1],,,3h[12:1],,5,4xh[12:1],,,6-2[10:1],,,72,,,
{24}3,,,4,,,8h[12:1],,5,7,,,6x/2,,5x,3x,,4x,7xw3b[12:1],,,,,,
{8}7/Cf,,{24}2,,2,4,,,6xh[12:1]/5xh[12:1],,,,,,7,,7,5,,B3/B4/E4/8x,
{24},,B6/B7/E7/2x,,,1,8>3<6[24:4],,,75,,,2,,,,,,1,,5,3h[12:1],,,
{24}Ch[24:2],,,,,,71,,2,8,,7/1,,,3,8,,4x,6,,2,4,,5xV37-1-4<8[12:7]/1x,
{8},,2h[8:2],,,,,,
{8}2-6[12:1]/6,,{24}24,,,5,,,5xh[12:1]/7xh[12:1],,,,,,2,,2,4,,B6/B5/E6/1x,
{24},,B3/B2/E3/7x,,,,8,,8,5,,,4xh[12:1]/2xh[12:1],,,,,,26,,1,7,,,
{24}3h[24:5]/1,,,,,8,7h[24:5]/1V75[24:4],,,,,2,3/1,,,2,,,4,,,8bz4[24:5],,6b>7[24:11],
{8},,,,,,1w5b[12:1],,
{24}1b/Cf,,,,,,47,,6,1,,3,,,48,,,,35,,7,5,,8,
{24},,2x,5x,,6x,4xV62[12:2],,2x,5x,,,7,,,,,,1,,3,8,,2x,
{24},,6x,5x,,4x,5xpp4[12:3],,,8x/7x,,,3,,,,,,2,,2,4,,8x,
{24},,6,1,,4,3,,,62,,8x/4x,,,7,5,,5,1w5b[12:1],,,73,,,
{24}1b/Cf,,,,,,52,,3,8,,6,,,51,,,,65,,2,4,,1,
{24},,7x,4x,,2x,5x-2<6-4[8:2],,7x,4x,,,3h[8:1],,,,,,1x,,,25,,,
{24}7,,6,1,,2,7-4[12:1],,6,1-5[12:1],,2,7>6[12:2],,,1,,,7,,,,,37,
{24},,37,,,,12,,4,5,,68,,,7,5,,8,1w5b[12:1],,4,2,,,
{8}1bpp4[24:11]*qq6b[24:11]/Cf,,,,,,,{24},,84,
{24},,56,,,7p5[8:2],3,,6,4,,3x/7x,,,,,,,1,,,34,,,
{24}2>5[10:1]/5,,,1,,6,2,,,7,,8xz4[8:1],,,,3h[24:3],,,,,,1,,,
{32}5x,6x,7x,8x,1x,2x,3x,4x,1x/5x,2x,3x,4x,5x,6x,7x,8x,{24}1xz5[12:2]/6xs2[12:2],,,83,,,,,,,,,
{16}3xhb[16:1],4xh[16:2],E2,,1xh[16:1],8xh[16:2],C,,7xh[16:1],5xh[16:2],E6,,
{16}3xh[16:1],4xh[16:1],2x,1bv4[12:1]/5b-8[12:1],
{16},6x/2x,,,,,,3qq4[12:3]/7-5[12:1],,2x/6x,,,,,,,
{24}5x<8[8:1],,,,,,85,1,2,3,4,5,61,,,1,8,7,62,,,8,1,2,37,,,7,8,1,2x/6x,,,8xz4[24:4]/4x>5[24:7],,,,,,,,,,,,,,,
{8}8-5[8:4],,8,,1,,2,,4<7[8:4]/6,,4,,3,,2,,1v2[8:1],,4v5[8:1],,3-7[8:1],,6-2[8:1],,8,,1p8[8:2],,5xv4[8:1],,,,
{24}54,,,2h[12:1],,4,3,,B5,,,,7h[12:1],,5,6,,C,,,3,4,,2h[24:3],
{24},,5,3,,,7h[12:1],,5,6,,,3h[12:1],,4,2,,B5,,,7,1,,6x/2x,
{24},,7,3,,,5,4,6,5,,,4,5,3,4h[12:1],,,2-5[12:1],,,5-1[12:1],,,
{24}1,,,,,,6<3[24:4],,,,,,3,,,,,,1xw5b[12:1],,,,,,
{24}1b/Cf,,,,,,7,,7,5,,,3h[8:1]/4h[8:1],,,,,,2,,2,4,,B6/B5/E6/1x,
{24},,B3/B2/E3/7x,,,8,1V75-3[24:4],,,24,,,71,,,,,,8,,2,6h[12:1],,,
{24}Ch[24:2],,,,,,28,,7,8,,2/1,,,6,8,,5x,3,,7,5,,4xV62-8-5[12:5]/8x,
{8},,7v5-3>1[24:8],,,,,,
{8}7-3[12:1]/3,,{24}75,,,4,,,4x/2x,,4x/3x,,,,7,,7,5,,B3/B4/E4/8x,
{24},,B6/B7/E7/2x,,,,1,,1,4,,,5x/7x,,5x/6x,,,,73,,8,2,,,
{24}6h[24:5]/8,,,,,1,2h[24:5]/8V24[24:4],,,,,7,6/8,,,7,,,5,,,1bs5[24:5],,3b<2[24:11],
{8},,,,,,8w4b[12:1],,
{24}8b/Cf,,,,,,52,,3,8,,6,,,51,,,,64,,2,1,,87,
{24},,6,3v8[10:1],,7,8<7-4[8:1]*V25[16:2],,5,3,,,,,,,,,46,,7,8,,62,
{24},,3,4,,2,1pp8[10:2],,,57,,,12,,,,,,4,,7,5,,E1/B8/B1/6x,
{24},,5,3,,8,2,,,43,,E6/B5/B6/1x,,,7,4,,8,1w5b[12:1],,,37,,,
{24}1b/Cf,,,,,,47,,6,1,,3,,,84,,,,35,,7,8,,21,
{24},,3,6v1[10:1],,2,1>4[10:1]*<5[10:1],,4,6,,,,,,,,,8x,,,75,,,
{24}2,,3,8,,7,2-5[12:1],,3,8-4[12:1],,7,2<3[12:2],,,8,,,2,,,,,62,
{24},,62,,,,87,,5,4,,31,,,2,4,,1,8w4b[12:1],,5,7,,,
{8}8b>7[24:8]*<1b[24:8]/Cf,,,,,,{24}17,,2,8,,1h[24:1]/3h[24:1],
{24},,2h[24:1]/4h[24:1],,,3h[24:1]/5qq1[24:6],,,4h[24:1]/6h[24:1],,,5/7h[24:1],,,8h[24:1],,,7h[24:1],,,26,,,,
{24}41,,,3,,8,2,,7,1,,8h[24:1]/6h[24:1],,,7h[24:1]/5h[24:1],,,6h[24:1]/4-7V15[24:6],,,5h[24:1]/3h[24:1],,,2h[24:1]/4,
{24},,3-6<2-5[24:7],,,4h[24:1],,,37,,,,,,,,,,8w4b[12:1],,2,6,,,
{24}8b/Cf,,,,,,2,,8,3,,5,,,7,8,,6,5,,8,3,,12,,,78,,,6,4,,5,3,,12,,,{48}7x,6x,5x,,{24},,64,,8,1,,,
{24}7,,6,1,,2,7-4[12:1],,6,1-5[12:1],,2,7>6[12:2],,,1,,,7,,,,,37,
{24},,37,,,,12,,4,5,,68,,,7,5,,8,1w5b[12:1],,4,2,,,
{8}1bq3[8:2]/Cf,,,,,,,
